вход на сайт

Имя пользователя :
Пароль :

Восстановление пароля Регистрация
Шерлок Холмс: Игра теней / Sherlock Holmes: A Game of Shadows (Гай Ричи, Боевик, триллер, криминал, детектив, приключения, 2011) [BDRip-AVC, Dub + Original + Sub (Rus, Eng)]
Рейтинг:
(голосов: 1)



[img]{THEME}/images/logopost.png[/img]



Шерлок Холмс: Игра теней / Sherlock Holmes: A Game of Shadows

Год выпуска: 2011
Страна: США
Производство: Warner Bros. Pictures
Жанр: боевик, триллер, криминал, детектив, приключения

Режиссёр: Гай Ричи
Композитор: Ханс Циммер

В ролях: Роберт Дауни мл., Джуд Лоу, Нуми Рапас, Рэйчел МакАдамс, Джаред Харрис, Стивен Фрай, Пол Андерсон, Келли Райлли, Джеральдин Джеймс, Эдди Марсан

Перевод: дублированный + оригинал
Субтитры: русские (Voronine по дубляжу), английские

Описание: 1891 год. В Вене и Страсбурге проходит серия терактов, организованных анархистами или националистами, а по всей Европе происходят таинственные убийства. Шерлок Холмс считает, что за всем этим стоит профессор Джеймс Мориарти — математический гений, автор знаменитых лекций и трудов.

Рейтинг:
imdb.com: 7.60 (87 909)
kinopoisk.ru: 8.04 (46 682)

Доп. информация: Дубляж с Blue-Ray CEE

Качество: BDRip-AVC (Enclave76)
Продолжительность: 02:08:45

Формат: MKV
Видео кодек: H.264
Аудио кодек: AС3
Видео: 1200 x 500 (2.40:1), 23.976 fps, ~3860 Kbps, 0.26 bit/pixel
Аудио #1: 48 kHz, 5.1 ch, ~448.00 kbps | Дубляж
Аудио #2: 48 kHz, 5.1 ch, ~448.00 kbps | Оригинал
Media Info ▼
Video
ID : 1
Format : AVC
Format/Info : Advanced Video Codec
Format profile : [email protected]
Format settings, CABAC : Yes
Format settings, ReFrames : 12 frames
Codec ID : V_MPEG4/ISO/AVC
Duration : 2h 8mn
Bit rate : 3 763 Kbps
Width : 1 200 pixels
Height : 500 pixels
Display aspect ratio : 2.40:1
Frame rate : 23.976 fps
Color space : YUV
Chroma subsampling : 4:2:0
Bit depth : 8 bits
Scan type : Progressive
Bits/(Pixel*Frame) : 0.262
Stream size : 3.38 GiB (79%)
Title : Encode by Enclave76
Writing library : x264 core 122 r2184kMod 5c85e0a
Encoding settings : cabac=1 / ref=12 / deblock=1:-3:-3 / analyse=0x3:0x113 / me=umh / subme=11 / psy=1 / fade_compensate=0.00 / psy_rd=0.93:0.07 / mixed_ref=1 / me_range=64 / chroma_me=1 / trellis=2 / 8x8dct=1 / cqm=0 / deadzone=21,11 / fast_pskip=1 / chroma_qp_offset=-3 / threads=4 / sliced_threads=0 / nr=0 / decimate=1 / interlaced=0 / bluray_compat=0 / constrained_intra=0 / bframes=12 / b_pyramid=2 / b_adapt=2 / b_bias=0 / direct=1 / weightb=1 / open_gop=0 / weightp=2 / keyint=240 / keyint_min=23 / scenecut=40 / intra_refresh=0 / rc_lookahead=40 / rc=crf / mbtree=0 / crf=17.7000 / qcomp=0.60 / qpmin=0 / qpmax=69 / qpstep=4 / vbv_maxrate=50000 / vbv_bufsize=62500 / crf_max=0.0 / nal_hrd=none / ip_ratio=1.40 / pb_ratio=1.30 / aq=1:1.00 / zones=176450,185208,q=35
Language : English
Matrix coefficients : BT.709-5, BT.1361, IEC 61966-2-4 709, SMPTE RP177

Audio #1
ID : 2
Format : AC-3
Format/Info : Audio Coding 3
Mode extension : CM (complete main)
Codec ID : A_AC3
Duration : 2h 8mn
Bit rate mode : Constant
Bit rate : 448 Kbps
Channel(s) : 6 channels
Channel positions : Front: L C R, Side: L R, LFE
Sampling rate : 48.0 KHz
Bit depth : 16 bits
Compression mode : Lossy
Stream size : 413 MiB (9%)
Title : Dub
Language : Russian

Audio #2
ID : 3
Format : AC-3
Format/Info : Audio Coding 3
Mode extension : CM (complete main)
Codec ID : A_AC3
Duration : 2h 8mn
Bit rate mode : Constant
Bit rate : 448 Kbps
Channel(s) : 6 channels
Channel positions : Front: L C R, Side: L R, LFE
Sampling rate : 48.0 KHz
Bit depth : 16 bits
Compression mode : Lossy
Stream size : 413 MiB (9%)
Title : Original
Language : English

Text #1
ID : 4
Format : UTF-8
Codec ID : S_TEXT/UTF8
Codec ID/Info : UTF-8 Plain Text
Title : voronine
Language : Russian

Text #2
ID : 5
Format : UTF-8
Codec ID : S_TEXT/UTF8
Codec ID/Info : UTF-8 Plain Text
Language : English

Text #3
ID : 6
Format : UTF-8
Codec ID : S_TEXT/UTF8
Codec ID/Info : UTF-8 Plain Text
Title : SDH
Language : English

Menu
00:00:00.000 : en:Chapter 1
00:09:18.266 : en:Chapter 2
...
a83aa419f721b3e7ff526c4a1f39e82d771282b9Шерлок Холмс: Игра теней / Sherlock Holmes: A Game of Shadows (Гай Ричи, Боевик, триллер, криминал, детектив, приключения, 2011) [BDRip-AVC, Dub + Original + Sub (Rus, Eng)] Шерлок Холмс: Игра теней / Sherlock Holmes: A Game of Shadows (Гай Ричи, Боевик, триллер, криминал, детектив, приключения, 2011) [BDRip-AVC, Dub + Original + Sub (Rus, Eng)] " />

Аплоадер: Админ, дата: 24-04-2012, 01:42, торрент скачан: 359 раз

Понравилась раздача? Посмотрите эти:
  • Цельнометаллическая оболочка / Full Metal Jacket (Стэнли Кубрик, драма, вое ...
  • Мартовские иды / The Ides of March (Джордж Клуни / George Clooney, драма, 2 ...
  • Персонаж / Stranger Than Fiction (Марк Форстер, Комедия, драма, фантастика, ...
  • Шерлок Холмс: Игра теней / Sherlock Holmes: A Game of Shadows (Гай Ричи, бо ...
  • Шерлок Холмс: Игра теней / Sherlock Holmes: A Game of Shadows (Гай Ричи, Бо ...
  • Шерлок Холмс: Игра теней / Sherlock Holmes: A Game of Shadows (Гай Ричи, Бо ...
  • Фантомы / Shutter (Масаюки Очиай, ужасы, триллер, детектив, 2008) [BDRip-AV ...
  • Исходный код / Source Code (Дункан Джонс, фантастика, боевик, триллер, 2011 ...
  • Бобер / The Beaver (Джоди Фостер, драма, 2011) [BDRip 720p, Дубляж + Оригин ...
  • Чаббчаббы спасают Рождество / The Chubbchubbs Save Xmas (Коуди Камерон, мул ...
  • Профессионал / Killer Elite (Гэри МакКендри, Боевик, Триллер, Криминал, 201 ...
  • Похищенная / A Lonely Place to Die (Джулиан Джилби, триллер, криминал, прик ...
  • Шерлок Холмс: Игра теней / Sherlock Holmes: A Game of Shadows (Гай Ричи, бо ...
  • Шерлок Холмс: Игра теней / Sherlock Holmes: A Game of Shadows (Гай Ричи, бо ...
  • Шерлок Холмс: Игра теней / Sherlock Holmes: A Game of Shadows (Гай Ричи, Бо ...
  • Шерлок Холмс: Игра теней / Sherlock Holmes: A Game of Shadows (Гай Ричи, Бо ...
  • Профессионал / Killer Elite (Гэри МакКендри, боевик, триллер, криминал, 201 ...
  • Шерлок Холмс: Игра теней / Sherlock Holmes: A Game of Shadows (Гай Ричи, бо ...
  • Шерлок Холмс: Игра теней / Sherlock Holmes: A Game of Shadows (Гай Ричи, Бо ...
  • Шерлок Холмс: Игра теней / Sherlock Holmes: A Game of Shadows (Гай Ричи, Бо ...
  • Информация
    Посетители, находящиеся в группе Гости, не могут оставлять комментарии к данной публикации.