вход на сайт

Имя пользователя :
Пароль :

Восстановление пароля Регистрация
Баллада о бомбере (Виталий Воробьев, военный, 2011) [BDRip, не требуется]
Рейтинг:
(голосов: 1)



[img]{THEME}/images/logopost.png[/img]



Баллада о бомбере
Год выпуска:2011
Страна: Россия, Украина,
Производство:Film.UA, Шпиль
Жанр: Военный
Продолжительность: 03:10:56
Перевод: не требуется

Режиссёр: Виталий Воробьев
В ролях: Никита Ефремов, Екатерина Астахова, Александр Давыдов, Нина Усатова, Дирк Мартенс, Олег Примогенов, Василий Слюсаренко, Владислав Абашин, Борис Каморзин, Тимофей Трибунцев, Виктория Толстоганова, Наталья Васько, Егор Баринов, Дарья Екамасова, Алексей Шемес, Максим Важов, Александр Суворов, Александр Фукс, Андрей Гусев, Виктория Малекторович, Юрий Гурьев, Сергей Калантай, Олег Костюков, Хеннинг Кобер, Станислав Щекин, Тимур Савин, Тарас Денисенко, Екатерина Кистень, Александр Игнатуша, Игорь Гнездилов, Борислав Борисенко, Любовь Тимошевская
Описание: Во время Второй мировой войны на территории, оккупированной немцами, разбивается советский самолет, но летевшие в нем на задание летчик Гривцов и его возлюбленная радистка Катя чудом спасаются. Удалось выжить и штурману Линько. Каждому из них теперь придется найти свой путь, чтобы выполнить боевое задание, вернуться к своим, и выжить…

IMDB: 7.1 рейтинг
КиноПоиск: 6,72 рейтинг
"MI" ▼Общее
Полное имя : D:Баллада о Бомбере.avi
Формат : AVI
Формат/Информация : Audio Video Interleave
Профиль формата : OpenDML
Размер файла : 2,17 Гбайт
Продолжительность : 3 ч. 9 м.
Общий поток : 1645 Кбит/сек
Программа кодирования : VirtualDubModRus 1.5.10.2 (build 2540/release)
Библиотека кодирования : VirtualDubMod build 2540/release
Видео
Идентификатор : 0
Формат : MPEG-4 Visual
Профиль формата : Advanced [email protected]
Параметр BVOP формата : 1
Параметр QPel формата : Нет
Параметр GMC формата : Без точки перехода
Параметр матрицы формата : Выборочная
Идентификатор кодека : XVID
Идентификатор кодека/Подсказка : XviD
Продолжительность : 3 ч. 9 м.
Битрейт : 1441 Кбит/сек
Ширина : 720 пикселей
Высота : 400 пикселей
Соотношение сторон : 16:9
Частота кадров : 23,976 кадра/сек
Цветовое пространство : YUV
Субдискретизация насыщенности : 4:2:0
Битовая глубина : 8 бит
Тип развёртки : Прогрессивная
Метод сжатия : С потерями
Бит/(Пиксели*Кадры) : 0.209
Размер потока : 1,90 Гбайт (88%)
Библиотека кодирования : XviD 65
Аудио
Идентификатор : 1
Формат : AC-3
Формат/Информация : Audio Coding 3
Расширение режима : CM (complete main)
Параметр Endianness формата : Big
Идентификатор кодека : 2000
Продолжительность : 3 ч. 9 м.
Вид битрейта : Постоянный
Битрейт : 192 Кбит/сек
Каналы : 2 канала
Расположение каналов : Front: L R
Частота : 48,0 КГц
Битовая глубина : 16 бит
Метод сжатия : С потерями
Размер потока : 260 Мбайт (12%)
Выравнивание : Разделение по промежуткам
Продолжительность промежутка : 42 мс. (1,00 видеокадр)
Время предзагрузки промежутка : 500 мс.

Качество: BDRip, исходник - Blu-ray disc 1080p
Формат: AVI
Видео кодек: XviD
Аудио кодек: AC3
Видео: 720x400 (1.80:1), 23.976 fps, XviD build 65 ~1446 kbps avg, 0.21 bit/pixel
Аудио: 48 kHz, AC3 Dolby Digital, 2/0 (L,R) ch, ~192 kbps
Раздача идет до 10 человек, не уходите с раздачи и не забываем говорит Спасибо


bc7008e87e151c5126a35c61d96cfe59c7bcb81dБаллада о бомбере (Виталий Воробьев, военный, 2011) [BDRip, не требуется] Баллада о бомбере (Виталий Воробьев, военный, 2011) [BDRip, не требуется] " />

Аплоадер: Админ, дата: 8-04-2012, 17:14, торрент скачан: 359 раз

Понравилась раздача? Посмотрите эти:
  • Бойфренд из будущего / About Time (Ричард Кёртис, Фантастика, драма, комеди ...
  • Одноклассники 2 / Grown Ups 2 (Деннис Дуган, Комедия, 2013) [BDRip, Професс ...
  • Паприка / Paprika // Фильм 1, эпизод 1 (из 1) (2006) [BDRip, профессиональн ...
  • Кровью и потом: Анаболики / Pain & Gain (Майкл Бэй, криминал, комедия, трил ...
  • Миллион для чайников / The Brass Teapot (Рамаа Мосли, Фэнтези, триллер, ком ...
  • Астрал на улице Арлетт / 388 Arletta Avenue (Рэндолл Коул, Триллер, 2011) [ ...
  • Вот я какой/ Thats What I Am (Майкл Павоне, Драма, 2011) [HDRip, Профессион ...
  • Жил-был тигр / Ek Tha Tiger (Кабир Кхан, боевик, триллер , 2012) [ HDRip, ...
  • Легенда о МорДу / The Legend of MorDu (Брайан Ларсен, Короткометражный, ска ...
  • 1812: Уланская баллада (Олег Фесенко, приключения, 2012) [DVDRip, Не требуе ...
  • Любовь по расписанию / Поезд (Сергей Мезенцев, мелодрама, 2012) [HDTVRip, Н ...
  • Дорога на... / Road to (Таисия Игуменцева, Комедия, короткометражный, 2011) ...
  • Боец из трущоб / Gutter King (Кейт Алан Моррис / Keith Alan Morris, боевик, ...
  • Баллада о бомбере // Эпизоды с 1 по 8 (из 8) (Виталий Воробьев, Военный, Др ...
  • Челюсти 3D / Shark Night 3D (Дэвид Р. Эллис, ужасы, триллер, 2011) [HDRip, ...
  • Шаман // Сезон 1, Эпизоды с 1 по 16 (из 16) (Драма, Криминал, 2011) [DVDRip ...
  • Гениальный папа / Father of Invention (Трент Купер, Драма, комедия, 2010) [ ...
  • Глаз шторма / The Eye of the Storm (Фред Скеписи, Драма, 2011) [HDRip, Проф ...
  • Человек из банки (Иван Кульнев, Комедия, 2012) [DVDRip, Не требуется]
  • Сдохни, Джон Такер / John Tucker Must Die (Бетти Томас, мелодрама, комедия, ...
  • Информация
    Посетители, находящиеся в группе Гости, не могут оставлять комментарии к данной публикации.