вход на сайт

Имя пользователя :
Пароль :

Восстановление пароля Регистрация
Коммуналка (Максим Бриус, криминал, боевик, 2011) [DVDRip, Не требуется]
Рейтинг:
(голосов: 1)



[img]{THEME}/images/logopost.png[/img]



«Коммуналка»
Год выпуска: 2011
Страна: Россия
Производство: Triiks Media
Жанр: Криминал, Боевик
Перевод: Не требуется

Режиссёр: Максим Бриус
В ролях: Евгений Пронин, Алексей Осипов (II), Ксения (Оксана) Скакун, Дарья Чернявская, Ирина Крецу
Описание:
Паша Раевский — лейтенант милиции — развелся с женой и переехал в коммунальную квартиру. Его соседями по коммуналке оказались стриптизерша Вика и недавно вернувшийся после очередной отсидки Виктор. Поначалу отношения соседей складывались почти враждебно. Но случается так, что подруга Вики Ирина становится свидетельницей убийства крупного криминального авторитета Андрона. И в панике приезжает к Вике. Туда же за ней приезжают бандиты.

Девушек спасает неожиданно вернувшийся домой Виктор. Он убивает одного из бандитов и вместе с девушками пускается в бега. У беглецов нет другого выхода, кроме как обратиться за помощью к своему соседу Паше. В итоге все жители коммунальной квартиры оказываются втянуты в бандитские разборки. По одиночке им не справиться, и они вынуждены держаться друг друга.



MediaInfo ▼
Общее
Полное имя : Kommunalka.2011Kommunalka.2011.DVDRip.avi
Формат : AVI
Формат/Информация : Audio Video Interleave
Размер файла : 746 Мбайт
Продолжительность : 1 ч. 29 м.
Общий поток : 1161 Кбит/сек
Программа кодирования : VirtualDubModRus 1.5.10.2 (build 2542/release)
Библиотека кодирования : VirtualDubMod build 2542/release
Видео
Идентификатор : 0
Формат : MPEG-4 Visual
Профиль формата : Advanced [email protected]
Параметр BVOP формата : 1
Параметр QPel формата : Нет
Параметр GMC формата : Без точки перехода
Параметр матрицы формата : Выборочная
Идентификатор кодека : XVID
Идентификатор кодека/Подсказка : XviD
Продолжительность : 1 ч. 29 м.
Битрейт : 1023 Кбит/сек
Ширина : 640 пикселей
Высота : 352 пикселя
Соотношение сторон : 16:9
Частота кадров : 25,000 кадров/сек
Цветовое пространство : YUV
Субдискретизация насыщенности : 4:2:0
Битовая глубина : 8 бит
Тип развёртки : Прогрессивная
Метод сжатия : С потерями
Бит/(Пиксели*Кадры) : 0.182
Размер потока : 657 Мбайт (88%)
Библиотека кодирования : XviD 64
Аудио
Идентификатор : 1
Формат : MPEG Audio
Версия формата : Version 1
Профиль формата : Layer 3
Режим : Joint stereo
Расширение режима : MS Stereo
Идентификатор кодека : 55
Идентификатор кодека/Подсказка : MP3
Продолжительность : 1 ч. 29 м.
Вид битрейта : Постоянный
Битрейт : 128 Кбит/сек
Каналы : 2 канала
Частота : 48,0 КГц
Метод сжатия : С потерями
Размер потока : 82,2 Мбайт (11%)
Выравнивание : Соединение по промежуткам
Продолжительность промежутка : 40 мс. (1,00 видеокадр)
Время предзагрузки промежутка : 504 мсТех. данные
Качество видео: DVDRip
Продолжительность: 01:29:21

Формат видео: AVI
Видео: 640x352 (16:9), 25 fps, XviD ~ 1023 kbps avg, 0.182 bit/pixel
Аудио: 48 kHz, MP3, 2 ch, 128.00 kbpss


8e29e855a2572ef65cd36e0885f83a89137fff89Коммуналка (Максим Бриус, криминал, боевик, 2011) [DVDRip, Не требуется] Коммуналка (Максим Бриус, криминал, боевик, 2011) [DVDRip, Не требуется] " />

Аплоадер: Админ, дата: 25-03-2012, 19:34, торрент скачан: 359 раз

Понравилась раздача? Посмотрите эти:
  • Малавита / The Family (Люк Бессон, Криминал, комедия, боевик, 2013) [DVDRip ...
  • Околофутбола (Антон Борматов, драма, криминал, 2013) [DVDRip, Не требуется] ...
  • Слежка / The Letter (Джей Ананья, Триллер, драма, 2012) [DVDRip, Профессион ...
  • Коммуналка (Максим Бриус, криминал, боевик, 2011) [DVDRip-AVC, Не требуются ...
  • Я тоже хочу (Алексей Балабанов, драма, криминал, 2012) [DVDRip, Не требуетс ...
  • 1812: Уланская баллада (Олег Фесенко, приключения, 2012) [DVDRip, Не требуе ...
  • Бог любви / God of Love (Люк Мэзени, Короткометражка, фэнтези, комедия, мел ...
  • Любовь по расписанию / Поезд (Сергей Мезенцев, мелодрама, 2012) [HDTVRip, Н ...
  • Вечерний Ургант // Сезон 2. Выпуск 62 (ТВ-шоу, 19.12.2012) [SATRip, Не треб ...
  • Вечерний Ургант // Сезон 2. Выпуск 63 (ТВ-шоу, 20.12.2012) [SATRip, Не треб ...
  • Кейси Джонс / Casey Jones (Иларион Бэнкс, Короткометражка, фэнтези, боевик, ...
  • Вечерний Ургант // Сезон 2. Выпуск 64 (ТВ-шоу, 21.12.2012) [SATRip, Не треб ...
  • Вечерний Ургант // Сезон 2. Выпуск 66 (ТВ-шоу, 25.12.2012) [SATRip, Не треб ...
  • Вечерний Ургант // Сезон 2. Выпуск 68 (ТВ-шоу, 27.12.2012) [SATRip, Не треб ...
  • Дорога на... / Road to (Таисия Игуменцева, Комедия, короткометражный, 2011) ...
  • Покорить высоту / Take It to the Limit (Сэм Кит / Sam Kieth, семейный, 2000 ...
  • Светлячок. Воссоединение Коричневых плащей к 10 годовщине / Firefly 10th An ...
  • Детский душ / Baby Shower (Pablo Illanes, Ужасы, 2011) [DVDRip, Любительски ...
  • Шаман // Сезон 1, Эпизоды с 1 по 16 (из 16) (Драма, Криминал, 2011) [DVDRip ...
  • Бюро находок : Потерянный и найденный / Lost and Found (Филип Хант, коротко ...
  • Информация
    Посетители, находящиеся в группе Гости, не могут оставлять комментарии к данной публикации.