вход на сайт

Имя пользователя :
Пароль :

Восстановление пароля Регистрация
Королевство / The Kingdom (Питер Берг, боевик, триллер, драма, 2007) [HDRip, Профессиональный (полностью дублированный) +Оригинал]
Рейтинг:
(голосов: 1)



[img]{THEME}/images/logopost.png[/img]



«Королевство / The Kingdom»

«Под давлением. Под огнем. В цейтноте.»

Год выпуска: 2007
Страна: СШАГермания
Производство: MDBF Zweite Filmgesellschaft, Universal Pictures
Жанр: боевик, триллер, драма

Режиссёр: Питер Берг
В ролях: Дэнни Трехо, Стив Остин, Серинда Свон, Локлин Манро, Ноэль Гульеми, Тай Рунян, Камилль Солари, Кейт Джардин, Патрик Гилмор, Коннор Стэнхоуп

Перевод: Профессиональный (полностью дублированный) +Оригинал
Озвучка: Сергей Бурунов, Рудольф Панков, Елена Ивасишина, Юрий Деркач, Василий Дахненко
Субтитры: нет

Описание
Драматический боевик на острую нынче тему конфликта на Ближнем Востоке. В этот трудный во всех отношениях регион отправляется команда из четверых профессиональных агентов ФБР, чтобы расследовать теракт, произошедший на американском объекте в этой стране, и найти некого Абу Хамза, предположительно главу террористов.

Сразу становится ясно, что миссия будет не из легких. Однако американцы находят общий язык с представителем местной полиции, который будет по возможности оказывать команде помощь в установлении справедливости в этой чужой им стране.



Доп. информация
Бюджет ▼$70 000 000
Рейтинг MPAA ▼
рейтинг R: лицам до 17 лет обязательно присутствие взрослого
СкринЛист ▼
MediaInfo ▼TextОбщее
Полное имя : D:DownloadsКоролевство.2007.HDRip.mp4
Формат : MPEG-4
Профиль формата : Base Media / Version 2
Идентификатор кодека : mp42
Размер файла : 1,46 Гбайт
Продолжительность : 1 ч. 49 м.
Режим общего битрейта : Переменный
Общий поток : 1904 Кбит/сек
Дата кодирования : UTC 2011-12-20 16:57:45
Дата пометки : UTC 2011-12-20 18:41:57
Программа кодирования : HandBrake 0.9.5 2011010300

Видео
Идентификатор : 1
Формат : AVC
Формат/Информация : Advanced Video Codec
Профиль формата : [email protected]
Параметр CABAC формата : Да
Параметр ReFrames формата : 4 кадра
Идентификатор кодека : avc1
Идентификатор кодека/Информация : Advanced Video Coding
Продолжительность : 1 ч. 49 м.
Вид битрейта : Переменный
Битрейт : 1455 Кбит/сек
Ширина : 720 пикселей
Высота : 304 пикселя
Соотношение сторон : 2,35:1
Режим частоты кадров : Переменный
Частота кадров : 23,976 кадра/сек
Минимальная частота кадров : 23,974 кадра/сек
Максимальная частота кадров : 23,981 кадра/сек
Цветовое пространство : YUV
Субдискретизация насыщенности : 4:2:0
Битовая глубина : 8 бит
Тип развёртки : Прогрессивная
Бит/(Пиксели*Кадры) : 0.277
Размер потока : 1,11 Гбайт (76%)
Библиотека кодирования : x264 core 112
Настройки программы : cabac=1 / ref=2 / deblock=1:0:0 / analyse=0x1:0x111 / me=hex / subme=6 / psy=1 / psy_rd=1.00:0.00 / mixed_ref=0 / me_range=16 / chroma_me=1 / trellis=0 / 8x8dct=0 / cqm=0 / deadzone=21,11 / fast_pskip=1 / chroma_qp_offset=-2 / threads=3 / sliced_threads=0 / nr=0 / decimate=1 / interlaced=0 / constrained_intra=0 / bframes=2 / b_pyramid=2 / b_adapt=1 / b_bias=0 / direct=1 / weightb=0 / open_gop=0 / weightp=2 / keyint=240 / keyint_min=23 / scenecut=40 / intra_refresh=0 / rc_lookahead=40 / rc=abr / mbtree=1 / bitrate=1455 / ratetol=1.0 / qcomp=0.60 / qpmin=3 / qpmax=51 / qpstep=4 / ip_ratio=1.40 / aq=1:1.00
Дата кодирования : UTC 2011-12-20 16:57:45
Дата пометки : UTC 2011-12-20 18:41:57
Основные цвета : BT.601-6 525, BT.1358 525, BT.1700 NTSC, SMPTE 170M
Характеристики трансфера : BT.709-5, BT.1361
Коэффициенты матрицы : BT.601-6 525, BT.1358 525, BT.1700 NTSC, SMPTE 170M

Аудио #1
Идентификатор : 2
Формат : AAC
Формат/Информация : Advanced Audio Codec
Профиль формата : LC
Идентификатор кодека : 40
Продолжительность : 1 ч. 49 м.
Вид битрейта : Переменный
Битрейт : 224 Кбит/сек
Максимальный битрейт : 305 Кбит/сек
Каналы : 2 канала
Расположение каналов : Front: L R
Частота : 48,0 КГц
Метод сжатия : С потерями
Размер потока : 176 Мбайт (12%)
Дата кодирования : UTC 2011-12-20 16:57:45
Дата пометки : UTC 2011-12-20 18:41:57

Аудио #2
Идентификатор : 3
Формат : AAC
Формат/Инфор
2865fdcc04aaf6bae8aa7d4133cb6c2274157d46Королевство / The Kingdom (Питер Берг, боевик, триллер, драма, 2007) [HDRip, Профессиональный (полностью дублированный) +Оригинал] Королевство / The Kingdom (Питер Берг, боевик, триллер, драма, 2007) [HDRip, Профессиональный (полностью дублированный) +Оригинал] " />

Аплоадер: Админ, дата: 4-03-2012, 12:15, торрент скачан: 359 раз

Понравилась раздача? Посмотрите эти:
  • Elvira T / Одержима [2013, Pop, HDRip]
  • Miranda Cosgrove / Dancing Crazy [2011, Pop, WEB-DLRip 720p]
  • Avril Lavigne / Smile [2011, Pop, HDRip]
  • Королевство / The Kingdom (Питер Берг / Peter Berg, Ronald Fleury, боевик, ...
  • Королевство / The Kingdom (Питер Берг / Peter Berg, Ronald Fleury, боевик, ...
  • Королевство / The Kingdom (Питер Берг, боевик, триллер, драма, 2007) [BDRip ...
  • Ariana Grande - ft. Mac Miller / The Way [2013, Pop, WEB-DLRip 1080p]
  • Погоня / Abduction (Джон Синглтон, боевик, триллер, драма, детектив, 2011) ...
  • Дикие собаки / Wild Dogs (Кэтрин Хикс, короткометражный анимационный фильм, ...
  • Чемпионат Англии 2012-2013 / 14-й тур / Обзор / Среда / BBC Sport [2012 г., ...
  • Чемпионат Англии 2012-2013 / 18-й тур / Обзор / Суббота / BBC Sport [2012 г ...
  • Чемпионат Англии 2012-2013 / 22-й тур / Обзор / Суббота / BBC Sport [2013 г ...
  • Нонито Донэйр - Хорхе Арсе / Nonito Donaire vs Jorge Arce [Бокс, 15.12.2012 ...
  • Чемпионат Англии 2012-2013 / 20-й тур / Обзор / Воскресенье / BBC Sport [20 ...
  • Чемпионат Англии 2012-2013 / 21-й тур / Обзор / Среда / BBC Sport [2013 г., ...
  • Кубок Англии 2012-2013 / 3-й раунд / Обзор / Суббота / ITV 1 HD [2013 г., ф ...
  • Кубок Англии 2012-2013 / 3-й раунд / Обзор / Воскресенье / ITV Sport [2013 ...
  • Королевство / The Kingdom (Питер Берг / Peter Berg, Боевик, Триллер, Драма, ...
  • Ван Пис / One Piece // Сезон 15, Эпизод 552 (2012) [WebRip, любительская ( ...
  • Чемпионат Англии 2012-2013 / 13-й тур / Обзор / Суббота / BBC Sport [2012 г ...
  • Информация
    Посетители, находящиеся в группе Гости, не могут оставлять комментарии к данной публикации.