вход на сайт

Имя пользователя :
Пароль :

Восстановление пароля Регистрация
Шлюха / Jade (Уильям Фридкин, боевик, триллер, драма, криминал, 1995) [HDRip, Профессиональный (многоголосый, закадровый)]
Рейтинг:
(голосов: 1)



[img]{THEME}/images/logopost.png[/img]



Шлюха
Jade
«Some fantasies go too far.»

Год выпуска: 1995
Страна: США
Производство: Warner Bros. Pictures
Жанр: триллер, детектив

Режиссер: Уильям Фридкин / William Friedkin

В ролях:

Дэвид Карузо (David Corelli), Линда Фиорентино (Trina Gavin), Чазз Пальминтери (Matt Gavin), Ричард Кренна (Gov. Lew Edwards), Майкл Бьен (Bob Hargrove), Донна Мерфи (Karen Heller), Кен Кинг (Petey Vesko), Холт МакКэллани (Bill Barrett), Дэвид Хант (Pat Callendar), Энджи Эверхарт (Patrice Jacinto), Кевин Тай (Dist. Atty. Arnold Clifford), Робин Томас (Mr. Green)

Перевод: Профессиональный (многоголосый, закадровый)
Субтитры: нет

Описание: Есть люди, которые полагают, что существуют лишь три вещи, заставляющие крутиться этот прогнивший и порочный мир - деньги, секс и власть. Все остальное, включая жалость, совесть и честь, не имеет для них абсолютно никакого значения. Эти люди готовы пойти на многое во имя своих трех идолов. Но иногда случается, что в своих желаниях они заходят слишком далеко…
Сотрудник прокуратуры Дэйвид Корелли расследует чудовищное по своей жестокости убийство. В своей шикарной вилле был страшно изуродован топором пожилой миллионер.
Следователь Корелли - идеальная кандидатура для разрешения столь сложного преступления. Но есть лишь одна маленькая загвоздка: никто не хочет, чтобы это преступление было раскрыто
MPAA: R - Лицам до 17 лет обязательно присутствие взрослого

Качество: HDRip
Продолжительность: 01:34:45

Формат: AVI
Видео кодек: XviD
Аудио кодек: MP3
Видео: XviD, 688x384, 958 kbps, 16:9 AR, 23.976 fps, 0.151 Bit / pixel
Аудио: MP3, 128 kbps, 2 ch, 48 kHz - Профессиональный (многоголосый, закадровый)

"Media Info" ▼
General
Complete name : /mnt/dat0/torrents/crazygreat/Jade.1995.bdrip_[745]_[teko].avi
Format : AVI
Format/Info : Audio Video Interleave
File size : 743 MiB
Duration : 1h 34mn
Overall bit rate : 1 096 Kbps
Writing application : VirtualDubMod 1.5.10.2 (build 2540/release)
Writing library : VirtualDubMod build 2540/release

Video
ID : 0
Format : MPEG-4 Visual
Format profile : Advanced [email protected]
Format settings, BVOP : 1
Format settings, QPel : No
Format settings, GMC : No warppoints
Format settings, Matrix : Default (MPEG)
Codec ID : XVID
Codec ID/Hint : XviD
Duration : 1h 34mn
Bit rate : 958 Kbps
Width : 688 pixels
Height : 384 pixels
Display aspect ratio : 16:9
Frame rate : 23.976 fps
Color space : YUV
Chroma subsampling : 4:2:0
Bit depth : 8 bits
Scan type : Progressive
Compression mode : Lossy
Bits/(Pixel*Frame) : 0.151
Stream size : 650 MiB (87%)
Writing library : XviD 1.2.0.dev47 (UTC 2006-11-01)

Audio
ID : 1
Format : MPEG Audio
Format version : Version 1
Format profile : Layer 3
Codec ID : 55
Codec ID/Hint : MP3
Duration : 1h 34mn
Bit rate mode : Constant
Bit rate : 128 Kbps
Channel(s) : 2 channels
Sampling rate : 48.0 KHz
Compression mode : Lossy
Stream size : 86.8 MiB (12%)
Alignment : Aligned on interleaves
Interleave, duration : 42 ms (1.00 video frame)
Interleave, preload duration : 504 ms
Writing library : LAME3.97
Encoding settings : -m s -V 4 -q 2 -lowpass 17 -b 128



7ee6ff5a19f09ce002be8b855d80fc11bb9735caШлюха / Jade (Уильям Фридкин, боевик, триллер, драма, криминал, 1995) [HDRip, Профессиональный (многоголосый, закадровый)] Шлюха / Jade (Уильям Фридкин, боевик, триллер, драма, криминал, 1995) [HDRip, Профессиональный (многоголосый, закадровый)] " />

Аплоадер: Админ, дата: 16-01-2012, 00:20, торрент скачан: 359 раз

Понравилась раздача? Посмотрите эти:
  • Погнали! / Getaway (Кортни Соломон, Боевик, Криминал, 2013) [HDRip, Професс ...
  • Погнали! / Getaway (Кортни Соломон, Боевик,Криминал, 2013) [HDRip, Професси ...
  • Хладнокровная / Cold Blooded (Джейсон Лапейр, Триллер, криминал, 2012) [WEB ...
  • Посылка / The Package (Джесси Джонсон, боевик, 2013) [HDRip, Профессиональн ...
  • Ледяной / The Iceman (Ариэль Вромен, триллер, драма, криминал, биография, 2 ...
  • Вторжение динозавра / Gwoemul (Пон Чжун Хо, Ужасы, Фантастика, Триллер, Дра ...
  • Летучий отряд Скотланд-Ярда / The Sweeney (Ник Лав, Боевик, Драма, Криминал ...
  • Ночь тамплиера / Night of the Templar (Пол Сэмпсон, Ужасы, фантастика, боев ...
  • Путь оружия / The Way of the Gun (Кристофер МакКуорри, Боевик, Триллер, Дра ...
  • Игра смерти / Game of death (Роберт Клауз, Саммо Хунг Кам-Бо, Брюс Ли, боев ...
  • Там внутри / Underneath (Стивен Содерберг , Триллер, Драма, Криминал, 1995) ...
  • Порочная страсть / Arbitrage (Николас Джареки, триллер, драма, 2012) [HDRip ...
  • Спартанец / Spartan (Дэвид Мэмет, боевик, триллер, драма, криминал, детекти ...
  • Орден Дракона / Dragon Crusaders (Марк Аткинс, Ниа Энн, Боевик, 2011) [HDRi ...
  • Водопад Ангела / Seraphim Falls (Дэвид Фон Энкен, боевик, триллер, драма, в ...
  • Романтики / The Romantics (Галт Нидерхоффер, Драма, мелодрама, комедия, 201 ...
  • Полусвет / Half Light (Крэйг Розенберг, Ужасы, триллер, драма, детектив, 20 ...
  • Замёрзший мир / 2012: Ice Age (Трэвис Форт, фантастика, боевик, 2011) [HDRi ...
  • Мгновение любви / Here (Браден Кинг, Драма, мелодрама, приключения, 2011) [ ...
  • Присутствие великолепия / Magnifica presenza (Ферзан Озпетек, драма, 2012) ...
  • Глушь / Resurrection County (Matt Zettell, ужасы, триллер, 2008) [DVDRip, П ...
  • Искажение / Skew (Сейв Челенз, ужасы, триллер, 2011) [HDRip, Профессиональн ...
  • Встреча со злом / Абсолютное зло / Meeting Evil (Крис Фишер, триллер, драма ...
  • Ничего, кроме правды / Nothing But the Truth (Род Лури, триллер, драма, 200 ...
  • Странные дни / Strange Days (Кэтрин Бигелоу, фантастика, боевик, триллер, д ...
  • Информация
    Посетители, находящиеся в группе Гости, не могут оставлять комментарии к данной публикации.