вход на сайт

Имя пользователя :
Пароль :

Восстановление пароля Регистрация
Профессионал / Killer Elite (Гэри МакКендри, боевик, триллер, криминал, 2011) [BDRip-AVC, Дубляж + Oригинал + Субтитры (rus, eng)]
Рейтинг:
(голосов: 1)



[img]{THEME}/images/logopost.png[/img]



Профессионал / Killer Elite
«May the Best Man Live»

Год выпуска: 2011
Страна: США Австралия
Производство: Omnilab Media, Ambience Entertainment, Current Entertainment, International Traders, Palomar Pictures (II)
Жанр: Боевик, Триллер, Криминал

Режиссёр: Гэри МакКендри
В ролях: Джейсон Стэтхэм, Клайв Оуэн, Роберт Де Ниро, Ивонн Страховски, Доминик Пурселл, Адевале Акиннуойе-Агбадже, Майкл Дорман, Грант Боулер, Бен Мендельсон, Кристи Барнс Каллен

Перевод: Дублированный [лицензия] + Оригинал
Субтитры: Русский, Английские [полные, UTF-8]

Описание: Бывшему бойцу британских силовых структур приходится забыть о тихой размеренной жизни отставника, когда его лучший друг оказывается в опасности.


Дата премьеры (мир): 10 сентября 2011
Дата премьеры (РФ): 22 сентября 2011, «Централ Партнершип»
Качество: BDRip-AVC
Продолжительность: 01:56:42

Релиз от:
Автор рипа: Vaippp

Формат: MKV
Видео кодек: x264
Аудио кодек: AC3
Видео: H.264 / 1032 x 430 / 2.40:1 / 1782 kbps / 23,976 fps
Аудио 1: AC3 Dolby Digital / 48 KHz / 448 kbps / 3/2 (L,C,R,l,r) + LFE ch | Дублированный [лицензия]
Аудио 2: AC3 Dolby Digital / 48 KHz / 448 kbps / 3/2 (L,C,R,l,r) + LFE ch | Оригинал

MediaInfo ▼TextVideo
ID : 1
Format : AVC
Format/Info : Advanced Video Codec
Format profile : [email protected]
Format settings, CABAC : Yes
Format settings, ReFrames : 13 frames
Codec ID : V_MPEG4/ISO/AVC
Duration : 1h 56mn
Bit rate : 1 782 Kbps
Width : 1 032 pixels
Height : 430 pixels
Display aspect ratio : 2.40:1
Frame rate : 23.976 fps
Color space : YUV
Chroma subsampling : 4:2:0
Bit depth : 8 bits
Scan type : Progressive
Bits/(Pixel*Frame) : 0.167
Stream size : 1.41 GiB (65%)
Title : Vaippp
Writing library : x264 core 120 r2120kMod 0c7dab9
Encoding settings : cabac=1 / ref=13 / deblock=1:-2:-1 / analyse=0x3:0x113 / me=umh / subme=10 / psy=1 / fade_compensate=0.00 / psy_rd=0.95:0.00 / mixed_ref=1 / me_range=32 / chroma_me=1 / trellis=2 / 8x8dct=1 / cqm=0 / deadzone=21,11 / fast_pskip=0 / chroma_qp_offset=-1 / threads=12 / sliced_threads=0 / nr=0 / decimate=0 / interlaced=0 / bluray_compat=0 / constrained_intra=0 / bframes=14 / b_pyramid=2 / b_adapt=2 / b_bias=0 / direct=3 / weightb=1 / open_gop=0 / weightp=2 / keyint=250 / keyint_min=23 / scenecut=40 / intra_refresh=0 / rc_lookahead=40 / rc=2pass / mbtree=0 / bitrate=1782 / ratetol=1.0 / qcomp=0.70 / qpmin=0 / qpmax=69 / qpstep=4 / cplxblur=20.0 / qblur=0.5 / vbv_maxrate=40000 / vbv_bufsize=30000 / nal_hrd=none / ip_ratio=1.35 / pb_ratio=1.35 / aq=3:0.90 / zones=158873,167884,b=0.5
Language : English
Default : Yes
Forced : No
Matrix coefficients : BT.709-5, BT.1361, IEC 61966-2-4 709, SMPTE RP177
Audio #1
ID : 2
Format : AC-3
Format/Info : Audio Coding 3
Mode extension : CM (complete main)
Codec ID : A_AC3
Duration : 1h 56mn
Bit rate mode : Constant
Bit rate : 448 Kbps
Channel(s) : 6 channels
Channel positions : Front: L C R, Side: L R, LFE
Sampling rate : 48.0 KHz
Bit depth : 16 bits
Compression mode : Lossy
Stream size : 374 MiB (17%)
Title : DUB @ R5
Language : Russian
Default : Yes
Forced : Yes
Audio #2
ID : 3
Format : AC-3
Format/Info : Audio Coding 3
Mode extension : CM (complete main)
Codec ID : A_AC3
Duration : 1h 56mn
Bit rate mode : Constant
Bit rate : 448 Kbps
Channel(s) : 6 channels
Channel positions : Front: L C R, Side: L R, LFE
Sampling rate : 48.0 KHz
Bit depth : 16 bits
Compression mode : Lossy
Stream size : 374 MiB (17%)
Title : Original
Language : English
Default : No
Forced : No
Text #1
ID : 4
Format : UTF-8
Codec ID : S_TEXT/UTF8
Codec ID/Info : UTF-8 Plain Text
Language : Russian
Default : No
Forced : No
Text #2
ID : 5
Format : UTF-8
Codec ID : S_TEXT/UTF8
Codec ID/Info : UTF-8 Plain Text
Language : English
Default : No
Forced : No
Menu
00:00:00.000 : en:00:00:00.000
00:06:11.580 : en:00:06:11.580
00:12:40.385 : en:00:12:40.385
00:18:18.222 : en:00:18:18.222
00:24:33.389 : en:00:24:33.389
00:30:06.972 : en:00:30:06.972
00:36:41.324 : en:00:36:41
17a00165d5822a2eca76e55966b1bb79ca12ca0bПрофессионал / Killer Elite (Гэри МакКендри, боевик, триллер, криминал, 2011) [BDRip-AVC, Дубляж + Oригинал + Субтитры (rus, eng)] Профессионал / Killer Elite (Гэри МакКендри, боевик, триллер, криминал, 2011) [BDRip-AVC, Дубляж + Oригинал + Субтитры (rus, eng)] " />

Аплоадер: Админ, дата: 5-01-2012, 17:02, торрент скачан: 359 раз

Понравилась раздача? Посмотрите эти:
  • Профессионал / Killer Elite (Гэри МакКендри, Боевик, триллер, криминал, 201 ...
  • Паркер / Parker (Тейлор Хэкфорд, Боевик, триллер, криминал, 2013) [BDRip 7 ...
  • 007: Координаты «Скайфолл» / Skyfall (Сэм Мендес, Боевик, триллер, криминал ...
  • Профессионал / Killer Elite (Гэри МакКендри , боевик, триллер, криминал, 20 ...
  • Профессионал / Killer Elite (Гэри МакКендри , боевик, триллер, криминал, 20 ...
  • [EN] Профессионал / Killer elite (Гэри МакКендри, боевик, триллер, криминал ...
  • Профессионал / Killer Elite (Гэри МакКендри, боевик, 2011) [BDRip-AVC, Проф ...
  • Шерлок Холмс: Игра теней / Sherlock Holmes: A Game of Shadows (Гай Ричи, бо ...
  • Кориолан / Coriolanus (Рэйф Файнс, триллер, драма, 2011) [BDRip-AVC, Дубли ...
  • Профессионал / Killer Elite (Гэри МакКендри, боевик, триллер, криминал, 201 ...
  • Профессионал / Killer Elite (Гэри МакКендри, Боевик, Триллер, Криминал, 201 ...
  • Профессионал / Killer Elite (Гэри МакКендри, боевик, триллер, криминал, 201 ...
  • Профессионал / Killer Elite (Гэри МакКендри , боевик, триллер, криминал, 20 ...
  • [iPhone, iPod, iPad]Профессионал / Killer Elite (Гэри МакКендри / Gary McKe ...
  • Профессионал / Killer Elite (Гэри МакКендри , боевик, триллер, криминал, 20 ...
  • Шерлок Холмс: Игра теней / Sherlock Holmes: A Game of Shadows (Гай Ричи, Бо ...
  • Профессионал / Killer Elite (Гэри МакКендри, боевик, триллер, криминал, 201 ...
  • Профессионал / Killer Elite (Гэри МакКендри / Gary McKendry, боевик, трилле ...
  • Профессионал / Killer Elite (Гэри МакКендри, боевик, триллер, криминал, 201 ...
  • Профессионал / Killer Elite (Гэри МакКендри / Gary McKendry, боевик, трилле ...
  • Информация
    Посетители, находящиеся в группе Гости, не могут оставлять комментарии к данной публикации.