вход на сайт

Имя пользователя :
Пароль :

Восстановление пароля Регистрация
Дикая штучка / Wild Target (Джонатан Линн, боевик, драма, комедия, криминал, 2010) [HDRip, Профессиональный (многоголосый, закадровый)] by Torrent Club
Рейтинг:
(голосов: 1)



[img]{THEME}/images/logopost.png[/img]



Дикая штучка / Wild Target

Год выпуска: 2010
Страна: Франция , Великобритания
Производство: Matador Pictures
Жанр: боевик, драма, комедия, криминал

Режиссёр: Джонатан Линн /Jonathan Lynn
В ролях: Билл Найи /Bill Nighy/, Эмили Блант /Emily Blunt/, Руперт Гринт /Rupert Grint/, Руперт Эверет /Rupert Everett/, Айлин Эткинс /Eileen Atkins/, Мартин Фриман /Martin Freeman/, Грегор Фишер /Gregor Fisher/, Грэхэм Сид /Graham Seed/, Дункан Дафф /Duncan Duff/

Перевод: Профессиональный (многоголосый, закадровый)
Субтитры: отсутствуют

Описание:
Виктор — наемный убийца из династии киллеров, достигший вершин своей «профессии». Несмотря на это, Виктору так хочется семейного счастья, но личная жизнь у него никак не хочет складываться. Неожиданно он влюбляется в талантливую аферистку, которую должен был «убрать», выполняя очередное задание…



Доп. информация:

Релиз от :
Рейтинг MPAA: ▼Рейтинг PG-13 - Детям до 13 лет просмотр не желателен

Премьера: ▼премьера (мир) 6 ноября 2009, ...
релиз на DVD 26 августа 2010, «Парадиз Видео»

Тех. данные:
Качество: HDRip
Продолжительность: 01:37:50 час.

Формат: AVI
Видео кодек: XviD
Аудио кодек: MP3
Видео: 688x288 (2.39:1), 24.000 fps, XviD build 50 ~926 kbps avg, 0.20 bit/pixel
Аудио: 48 kHz, MPEG Layer 3, 2 ch, ~128.00 kbps avg
"MediaInfo" ▼TextОбщее
Полное имя : C:UsersШапагатDownloadsDikaja.shtuchka.2010.hdrip.by.Torrent-Club.avi
Формат : AVI
Формат/Информация : Audio Video Interleave
Размер файла : 745 Мбайт
Продолжительность : 1 ч. 37 м.
Общий поток : 1064 Кбит/сек
Режиссёр : Rip by Torrent Club / Simple_guy
Программа кодирования : VirtualDubMod 1.5.10.3 | www.virtualdub-fr.org || (build 2550/release)

Видео
Идентификатор : 0
Формат : MPEG-4 Visual
Профиль формата : Advanced [email protected]
Параметр BVOP формата : 2
Параметр QPel формата : Нет
Параметр GMC формата : Без точки перехода
Параметр матрицы формата : Default (H.263)
Идентификатор кодека : XVID
Идентификатор кодека/Подсказка : XviD
Продолжительность : 1 ч. 37 м.
Битрейт : 927 Кбит/сек
Ширина : 688 пикс.
Высота : 288 пикс.
Соотношение сторон : 2,40:1
Частота кадров : 24,000 кадр/сек
Цветовое пространство : YUV
Подвыборка цветности : 4:2:0
Битовая глубина : 8 бит
Тип развёртки : Прогрессивная
Метод сжатия : С потерями
Бит/(Пиксели*Кадры) : 0.195
Размер потока : 648 Мбайт (87%)
Библиотека кодирования : XviD 1.2.1 (UTC 2008-12-04)

Аудио
Идентификатор : 1
Формат : MPEG Audio
Версия формата : Version 1
Профиль формата : Layer 3
Режим : Joint stereo
Расширение режима : MS Stereo
Идентификатор кодека : 55
Идентификатор кодека/Подсказка : MP3
Продолжительность : 1 ч. 37 м.
Вид битрейта : Постоянный
Битрейт : 128 Кбит/сек
Каналы : 2 канала
Частота : 48,0 КГц
Метод сжатия : С потерями
Размер потока : 89,6 Мбайт (12%)
Выравнивание : Соединение по промежуткам
Продолжительность промежутка : 42 мс. (1,00 видеокадр)
Время предзагрузки промежутка : 504 ms
Библиотека кодирования : LAME3.98r
Настройки программы : -m j -V 4 -q 2 -lowpass 17 -b 128



Раздача группы: Наши раздачи
Набор в группу




331b1993a4fd262720a2b923ef79ab33168c7901Дикая штучка / Wild Target (Джонатан Линн, боевик, драма, комедия, криминал, 2010) [HDRip, Профессиональный (многоголосый, закадровый)] by Torrent Club Дикая штучка / Wild Target (Джонатан Линн, боевик, драма, комедия, криминал, 2010) [HDRip, Профессиональный (многоголосый, закадровый)] by Torrent Club " />

Аплоадер: Админ, дата: 12-07-2011, 16:33, торрент скачан: 359 раз

Понравилась раздача? Посмотрите эти:
  • Грязная кампания за честные выборы / The Campaign (Джей Роуч , Комедия,201 ...
  • Слежка / The Letter (Джей Ананья, Триллер, драма, 2012) [DVDRip, Профессион ...
  • Дикая штучка / Wild Target (Джонатан Линн, боевик, комедия, 2010) [HDRip,Пр ...
  • Дикая штучка / Wild Target (Джонатан Линн, боевик, драма, комедия, криминал ...
  • Плохой хороший полицейский / Bon Cop, Bad Cop (Эрик Кануэль, боевик, трилле ...
  • Дикая штучка / Wild Target (Джонатан Линн, боевик, драма, комедия, криминал ...
  • Рождённый свободным / The Colt (Елена Ланская, драма, боевик, история, 200 ...
  • Злые птицы: Хэллоуин / Angry Birds: HamOWeen (Джей Ройвайнен, Мультфильм, к ...
  • Темный сахар / Brown Sugar (Рик Фамуйива, Драма, мелодрама, комедия, музыка ...
  • Бог любви / God of Love (Люк Мэзени, Короткометражка, фэнтези, комедия, мел ...
  • Кейси Джонс / Casey Jones (Иларион Бэнкс, Короткометражка, фэнтези, боевик, ...
  • Заместитель / Il supplente (Андреа Жублин, Короткометражка, комедия, 2007) ...
  • Покорить высоту / Take It to the Limit (Сэм Кит / Sam Kieth, семейный, 2000 ...
  • Светлячок. Воссоединение Коричневых плащей к 10 годовщине / Firefly 10th An ...
  • А что насчет тебя? / How About You (Энтони Бирн, Драма, комедия, 2007) [DVD ...
  • Брат якудзы / Brother (Такеши Китано, триллер, драма, криминал, 2000) [HDRi ...
  • Дикая штучка / Wild Target (Джонатан Линн, боевик, комедия, драма, криминал ...
  • Дикая штучка / Wild Target (Джонатан Линн, боевик, комедия, драма, криминал ...
  • Детский душ / Baby Shower (Pablo Illanes, Ужасы, 2011) [DVDRip, Любительски ...
  • Аппалуза / Appaloosa (Эд Харрис, Драма, вестерн, криминал, 2008) [HDRip, Пр ...
  • Привет, Джули! / Flipped (Роб Райнер, драма, мелодрама, комедия , 2010) [HD ...
  • Часто задаваемые вопросы о путешествиях во времени / Frequently Asked Quest ...
  • Часто задаваемые вопросы о путешествиях во времени / Frequently Asked Quest ...
  • Пупупиду / Poupoupidou (Жеральд Юсташ-Матье, комедия, криминал, 2011) [DVDR ...
  • Пожирая живых / Ночь зомби / Zombie Night (Дэвид Дж. Фрэнсис, Ужасы, комеди ...
  • Информация
    Посетители, находящиеся в группе Гости, не могут оставлять комментарии к данной публикации.