вход на сайт

Имя пользователя :
Пароль :

Восстановление пароля Регистрация
Ханна. Совершенное оружие / Hanna (Джо Райт, боевик, триллер, детектив, приключения, 2011) [HDRip, Дублированное [лицензия]]
Рейтинг:
(голосов: 1)



[img]{THEME}/images/logopost.png[/img]



Ханна. Совершенное оружие / Hanna

Слоган «Она - совершенное оружие»

Год выпуска: 2011
Страна: США , Германия , Великобритания
Производство: Ardustry Entertainment, Marty Adelstein Productions, Studio Babelsberg
Жанр: боевик, триллер, детектив, приключения

Режиссёр: Джо Райт
В ролях: Сирша Ронан, Эрик Бана, Кейт Бланшетт, Том Холландер, Пэрис Эрроусмит, Оливия Уильямс, Джейсон Флеминг, Джон Макмилла, Тим Бекманн, Вики Крипс

Перевод: Дублированный [Лицензия]
Субтитры: отсутствуют

Описание:
Хрупкая на первый взгляд Ханна — идеальный солдат. Тайна ее рождения ревностно охраняется американским правительством. Ее миссия — отомстить бывшим работодателям отца, некогда секретного агента. Спецслужбы всего мира выходят на след девочки-убийцы. Охота начинается…





Доп. информация:

Знаете ли вы, что ▼ - Многие экшн-сцены фильма представляют собой тщательно проработанные сверхдлинные планы. Постановка таких эпизодов – «конек» Райта. Режиссер сообщил, что специально пригласил к сотрудничеству операторов стедикама, работавших на «Русском ковчеге» Александра Сокурова (как известно, данная экспериментальная российская кинопостановка - это единый технически изощренный 99-минутный длинный план).
- Оригинальный саундтрек к «Ханне» напишет дуэт The Chemical Brothers.
- Дэнни Бойл разрабатывал проект в начале 2009.
- По слухам, Альфонсо Куарон мог поставить фильм.
- Сценарий фильма попал в «Черный список» (Black List) 2006 и 2009 гг.
- Сет Локхед написал сценарий в 2006 году.
Рейтинг MPAA: ▼ Рейтинг PG-13 - Детям до 13 лет просмотр не желателен
Премьера: ▼премьера (мир) 7 апреля 2011
премьера (РФ) 5 мая 2011, «Вольга»
релиз на DVD 9 июня 2011, «Вольга»

Тех. данные:
Качество: HDRip
Продолжительность: 01:50:50 час.

Формат: AVI
Видео кодек: Xvid
Аудио кодек: AC3
Видео: 720x304 (2.37:1), 24.000 fps, XviD build 50 ~2189 kbps avg, 0.42 bit/pixel
Аудио: 48 kHz,AC3 Dolby Digital, 3/2 (L,C,R,l,r) + LFE ch, ~448.00 kbps avg
MediaInfo ▼TextОбщее
Полное имя : C:UsersШапагатDesktophanna.sovershennoe.orujie.2011.d.hdrip..avi
Формат : AVI
Формат/Информация : Audio Video Interleave
Профиль формата : OpenDML
Размер файла : 2,05 Гбайт
Продолжительность : 1 ч. 50 м.
Общий поток : 2645 Кбит/сек
Программа кодирования : VirtualDubMod 1.5.10.3 | www.virtualdub-fr.org || (build 2550/release)
Библиотека кодирования : VirtualDubMod build 2550/release

Видео
Идентификатор : 0
Формат : MPEG-4 Visual
Профиль формата : Advanced [email protected]
Параметр BVOP формата : 3
Параметр QPel формата : Нет
Параметр GMC формата : Без точки перехода
Параметр матрицы формата : Выборочная
Идентификатор кодека : XVID
Идентификатор кодека/Подсказка : XviD
Продолжительность : 1 ч. 50 м.
Битрейт : 2184 Кбит/сек
Ширина : 720 пикс.
Высота : 304 пикс.
Соотношение сторон : 2,35:1
Частота кадров : 24,000 кадр/сек
Цветовое пространство : YUV
Подвыборка цветности : 4:2:0
Битовая глубина : 8 бит
Тип развёртки : Прогрессивная
Метод сжатия : С потерями
Бит/(Пиксели*Кадры) : 0.416
Размер потока : 1,69 Гбайт (83%)
Библиотека кодирования : XviD 1.2.1 (UTC 2008-12-04)

Аудио
Идентификатор : 1
Формат : AC-3
Формат/Информация : Audio Coding 3
Расширение режима : CM (complete main)
Идентификатор кодека : 2000
Продолжительность : 1 ч. 50 м.
Вид битрейта : Постоянный
Битрейт : 448 Кбит/сек
Канал(ы) : 6 канала(ов)
Расположение каналов : Front: L C R, Side: L R, LFE
Частота : 48,0 КГц
Битовая глубина : 16 бит
Метод сжатия : С потерями
Размер потока : 355 Мбайт (17%)
Выравнивание : Разделение по промежуткам
Продолжительность промежутка : 42 мс. (1,00 видеокадр)
Время предзагрузки промежутка : 500 msРаздача группы: Наши раздачи
Набор в группу




44f8dd5caf2d3a3165e7bd0f7f7bf6c5ae451969Ханна. Совершенное оружие / Hanna (Джо Райт, боевик, триллер, детектив, приключения, 2011) [HDRip, Дублированное [лицензия]] Ханна. Совершенное оружие / Hanna (Джо Райт, боевик, триллер, детектив, приключения, 2011) [HDRip, Дублированное [лицензия]] " />

Аплоадер: Админ, дата: 11-06-2011, 15:15, торрент скачан: 359 раз

Понравилась раздача? Посмотрите эти:
  • Бойфренд из будущего / About Time (Ричард Кёртис, Фантастика, драма, комеди ...
  • Мачете убивает / Machete Kills (Роберт Родригес, боевик, комедия, 2013) [HD ...
  • Прошлое / Le passé (Асгар Фархади, Драма, детектив , 2013) [HDRip, Авторски ...
  • Ханна. Совершенное оружие / Hanna (Джо Райт, Боевик, 2011) [BDRip - AVC, Ду ...
  • Криминальная фишка от Генри / Henrys Crime (Малькольм Венвилль, мелодрама, ...
  • Ханна. Совершенное оружие / Hanna (Джо Райт, боевик, триллер, криминал, дет ...
  • Ханна. Совершенное оружие / Hanna (Джо Райт / Joe Wright, боевик, триллер, ...
  • Жил-был тигр / Ek Tha Tiger (Кабир Кхан, боевик, триллер , 2012) [ HDRip, ...
  • Злые птицы: Хэллоуин / Angry Birds: HamOWeen (Джей Ройвайнен, Мультфильм, к ...
  • Ханна. Совершенное оружие / Hanna (Джо Райт, боевик, 2011) [BDRip 720p, Дуб ...
  • Ханна. Совершенное оружие / Hanna (Джо Райт, боевик, 2011) [BDRip 1080p, Ду ...
  • Ханна. Совершенное оружие / Hanna (Джо Райт, боевик, триллер, детектив, при ...
  • Боец из трущоб / Gutter King (Кейт Алан Моррис / Keith Alan Morris, боевик, ...
  • Ханна. Совершенное оружие / Hanna (Джо Райт, боевик, триллер, детектив, при ...
  • Ханна. Совершенное оружие / Hanna (Джо Райт, боевик, триллер, детектив, при ...
  • Ханна. Совершенное оружие / Hanna (Джо Райт, боевик, триллер, криминал, дет ...
  • Вторжение: Битва за рай / Tomorrow, When the War Began (Стюарт Битти, боеви ...
  • Железная хватка / True Grit (Итэн Коэн, Джоэл Коэн, драма, приключения, вес ...
  • Жизнь за брата / The Heavy (Маркус Уоррен, триллер, 2010) [DVDRip, Професси ...
  • Челюсти 3D / Shark Night 3D (Дэвид Р. Эллис, ужасы, триллер, 2011) [HDRip, ...
  • Ханна. Совершенное оружие / Hanna (Джо Райт, боевик, драма, 2011) [HDRip, П ...
  • Приключения Тинтина: Тайна Единорога / The Adventures of Tintin (Стивен Спи ...
  • Нет мужчин - нет проблем / Without Men (Габриела Тальявини, Комедия, 2011) ...
  • Глаз шторма / The Eye of the Storm (Фред Скеписи, Драма, 2011) [HDRip, Проф ...
  • Сдохни, Джон Такер / John Tucker Must Die (Бетти Томас, мелодрама, комедия, ...
  • Информация
    Посетители, находящиеся в группе Гости, не могут оставлять комментарии к данной публикации.