вход на сайт

Имя пользователя :
Пароль :

Восстановление пароля Регистрация
Крест / Cross (Патрик Дархэм, боевик, 2011) [DVDRip, Профессиональный (многоголосый, закадровый) [лицензия]]
Рейтинг:
(голосов: 1)



[img]{THEME}/images/logopost.png[/img]



Крест / Cross

Год выпуска: 2011
Страна: США
Производство: Carr Miller Entertainment,Fat Monster Films, Morningstar Films
Жанр: фэнтези, боевик

Режиссёр: Патрик Дархэм / Patrick Durham
В ролях: Майкл Кларк Дункан, Винни Джонс, С. Томас Хауэлл, Брайан Остин Грин, Том Сайзмор, Джейк Бьюзи, Роберт Кэрредин, Уильям Забка, Сьюзи Абромейт, Лори Хёринг...

Перевод: Профессиональный (многоголосый) лицензия
Субтитры: Нет

Описание: Когда на улицах Лос-Анджелеса начинают без вести пропадать красивые юные девушки, борец за добро и справедливость Кэллен по прозвищу Крест и его банда экспертов по оружию берут ситуацию в свои руки и бросают силы на разгадку таинственных исчезновений. Наделенный невероятной силой, дарованной ему древним кельтским крестомКэллен вступает в схватку с опасным врагом - бессмертным Викингом, задумавшим уничтожить человечество

IMDB: 3.2
КиноПоиск: 2.77



Качество: DVDRip, источник: DVD9 R5
Продолжительность: 01:40:38

Формат: AVI
Видео кодек: XviD
Аудио кодек: MPEG
Видео: 720x400 (16:9), 25.000 fps, XviD MPEG-4 ~898 kbps avg, 0.125 bit/pixel
Аудио: 48 kHz, MPEG Layer 3, 2 ch, 128.00 kbps Constant

MediaInfo ▼Формат : AVI
Формат/Информация : Audio Video Interleave
Размер файла : 745 Мбайт
Продолжительность : 1 ч. 40 м.
Общий поток : 1036 Кбит/сек
Программа кодирования : VirtualDubMod 1.5.10.3 | www.virtualdub-fr.org || (build 2550/release)
Библиотека кодирования : VirtualDubMod build 2550/release

Видео
Идентификатор : 0
Формат : MPEG-4 Visual
Профиль формата : Advanced [email protected]
Параметр BVOP формата : 1
Параметр QPel формата : Нет
Параметр GMC формата : Без точки перехода
Параметр матрицы формата : Выборочная
Идентификатор кодека : MP4V
Идентификатор кодека/Информация : Apple QuickTime MPEG-4 native
Продолжительность : 1 ч. 40 м.
Битрейт : 898 Кбит/сек
Ширина : 720 пикс.
Высота : 400 пикс.
Соотношение сторон : 16:9
Частота кадров : 25,000 кадр/сек
Цветовое пространство : YUV
Подвыборка цветности : 4:2:0
Битовая глубина : 8 бит
Тип развёртки : Прогрессивная
Метод сжатия : С потерями
Бит/(Пиксели*Кадры) : 0.125
Размер потока : 646 Мбайт (87%)
Библиотека кодирования : XviD 1.2.1 (UTC 2008-12-04)

Аудио
Идентификатор : 1
Формат : MPEG Audio
Версия формата : Version 1
Профиль формата : Layer 3
Идентификатор кодека : 55
Идентификатор кодека/Подсказка : MP3
Продолжительность : 1 ч. 40 м.
Вид битрейта : Постоянный
Битрейт : 128 Кбит/сек
Каналы : 2 канала
Частота : 48,0 КГц
Метод сжатия : С потерями
Размер потока : 92,1 Мбайт (12%)
Выравнивание : Соединение по промежуткам
Продолжительность промежутка : 40 мс. (1,00 видеокадр)
Время предзагрузки промежутка : 504 ms

Дата премьеры (мир): 31 мая 2011


d42a642a6acbf5a35a8a08e43613233c4b9d02c0Крест / Cross (Патрик Дархэм, боевик, 2011) [DVDRip, Профессиональный (многоголосый, закадровый) [лицензия]] Крест / Cross (Патрик Дархэм, боевик, 2011) [DVDRip, Профессиональный (многоголосый, закадровый) [лицензия]] " />

Аплоадер: Админ, дата: 7-06-2011, 23:41, торрент скачан: 359 раз

Понравилась раздача? Посмотрите эти:
  • Малавита / The Family (Люк Бессон, Криминал, комедия, боевик, 2013) [DVDRip ...
  • Грязная кампания за честные выборы / The Campaign (Джей Роуч , Комедия,201 ...
  • Слежка / The Letter (Джей Ананья, Триллер, драма, 2012) [DVDRip, Профессион ...
  • Астрал на улице Арлетт / 388 Arletta Avenue (Рэндолл Коул, Триллер, 2011) [ ...
  • Злые птицы: Хэллоуин / Angry Birds: HamOWeen (Джей Ройвайнен, Мультфильм, к ...
  • Путешествие на дно моря / Voyage to the Bottom of the Sea (Ирвин Аллен / I ...
  • Кажется, я люблю свою жену / I Think I Love My Wife (Крис Рок, Драма, мелод ...
  • Темный сахар / Brown Sugar (Рик Фамуйива, Драма, мелодрама, комедия, музыка ...
  • Огненный шторм / Firestorm (Дин Семлер, Боевик, Триллер, 1998) [DVDRip, Про ...
  • Бог любви / God of Love (Люк Мэзени, Короткометражка, фэнтези, комедия, мел ...
  • Любовь по расписанию / Поезд (Сергей Мезенцев, мелодрама, 2012) [HDTVRip, Н ...
  • Вечерний Ургант // Сезон 2. Выпуск 63 (ТВ-шоу, 20.12.2012) [SATRip, Не треб ...
  • Кейси Джонс / Casey Jones (Иларион Бэнкс, Короткометражка, фэнтези, боевик, ...
  • Заместитель / Il supplente (Андреа Жублин, Короткометражка, комедия, 2007) ...
  • Покорить высоту / Take It to the Limit (Сэм Кит / Sam Kieth, семейный, 2000 ...
  • Светлячок. Воссоединение Коричневых плащей к 10 годовщине / Firefly 10th An ...
  • У дьявола нет лица / Plasterhead (Кевин Хиггинс / Kevin Higgins, ужасы, три ...
  • Детский душ / Baby Shower (Pablo Illanes, Ужасы, 2011) [DVDRip, Любительски ...
  • Крест / Cross (Патрик Дархэм, боевик, 2011) [DVDRip, Профессиональный (мног ...
  • Лопе де Вега: Распутник и соблазнитель / Lope ( Андруча Уэддингтон / Andruc ...
  • Привет, Джули! / Flipped (Роб Райнер, драма, мелодрама, комедия , 2010) [HD ...
  • Пулбой: Спасайся кто может / Poolboy: Drowning Out the Fury (Гарретт Бравит ...
  • Храбрые Перцем / Your Highness (Дэвид Гордон Грин, фэнтези, 2011) [BDRip, Д ...
  • Пупупиду / Poupoupidou (Жеральд Юсташ-Матье, комедия, криминал, 2011) [DVDR ...
  • Пожирая живых / Ночь зомби / Zombie Night (Дэвид Дж. Фрэнсис, Ужасы, комеди ...
  • Информация
    Посетители, находящиеся в группе Гости, не могут оставлять комментарии к данной публикации.