вход на сайт

Имя пользователя :
Пароль :

Восстановление пароля Регистрация
Холодная смесь / Cold Fusion (Иван Митов, боевик, 2010) [HDRip, Профессиональный (многоголосый, закадровый)]
Рейтинг:
(голосов: 1)



[img]{THEME}/images/logopost.png[/img]



Холодная смесь / Cold Fusion
Слоган: Отсутствует

Год выпуска: 2010
Страна: США
Производство: UFO International Productions
Жанр: Боевик

Режиссёр: Иван Митов / Ivan Mitov
В ролях: Уильям Хоуп, Велизaр Бинев, Сара Браун, Рустам Касымов, Джон Ласковски, Мишель Ли, Эдриан Пол, Атанас Сребрев, Майк Страуб, Шелли Варод

Перевод: Профессиональный (многоголосый, закадровый)
Субтитры: Нет

Описание: В семидесятые годы, в небе над СССР подстреливают НЛО, который помещают в закрытую исследовательскую лабораторию. После распада Советского Союза, инопланетная технология попадает в руки террористов, использующих ее для создания разрушительного оружия массового поражения. Остановить преступников призвана группа секретных агентов

3.10 (26) 3.167 (41)

Доп. информация:

Премьеры ▼
премьера (мир): 23 февраля 2011

MediaInfo ▼Text
General
Format : AVI
Format/Info : Audio Video Interleave
File size : 699 MiB
Duration : 1h 23mn
Overall bit rate : 1 173 Kbps
Movie name : Holodnaja.2010.P.HDRip.F-Torrent
Director : F-Torrent
Writing application : VirtualDubMod 1.5.10.1 Рус от Stvens Inc.™ www.stvens.amillo.net (build 2439/release)
Copyright : F-Torrent.com
Video #0
ID : 0
Format : MPEG-4 Visual
Format profile : Advanced [email protected]
Format settings, BVOP : 4
Format settings, QPel : No
Format settings, GMC : No warppoints
Format settings, Matrix : Default (H.263)
Muxing mode : Packed bitstream
Codec ID : XVID
Codec ID/Hint : XviD
Duration : 1h 23mn
Bit rate : 1 035 Kbps
Width : 640 pixels
Height : 352 pixels
Display aspect ratio : 16:9
Frame rate : 25.000 fps
Color space : YUV
Chroma subsampling : 4:2:0
Bit depth : 8 bits
Scan type : Progressive
Compression mode : Lossy
Bits/(Pixel*Frame) : 0.184
Stream size : 617 MiB (88%)
Writing library : XviD 62
Audio #1
ID : 1
Format : MPEG Audio
Format version : Version 1
Format profile : Layer 3
Mode : Joint stereo
Mode extension : MS Stereo
Codec ID : 55
Codec ID/Hint : MP3
Duration : 1h 23mn
Bit rate mode : Constant
Bit rate : 128 Kbps
Channel(s) : 2 channels
Sampling rate : 48.0 KHz
Compression mode : Lossy
Stream size : 76.3 MiB (11%)
Alignment : Aligned on interleaves
Interleave, duration : 40 ms (1.00 video frame)
Interleave, preload duration : 504 ms

Ещё скрины ▼
Качество: HDRip
Продолжительность: 01:23:21 час.

Формат: AVI
Видео кодек: XviD
Аудио кодек: MP3
Видео: 640 x 352 (16:9), 25.000 fps, ~1 173 Kbps avg, 0.184bit/pixel
Аудио: 48.0 KHz, МР3, 2 ch, 128.00 kbps avg


dec487ac7c1b29497b8fdbbf3c49d59b386888fbХолодная смесь / Cold Fusion (Иван Митов, боевик, 2010) [HDRip, Профессиональный (многоголосый, закадровый)] Холодная смесь / Cold Fusion (Иван Митов, боевик, 2010) [HDRip, Профессиональный (многоголосый, закадровый)] " />

Аплоадер: Админ, дата: 5-06-2011, 02:21, торрент скачан: 359 раз

Понравилась раздача? Посмотрите эти:
  • Непристойная комедия / InAPPropriate Comedy (Винс Оффер, комедия, 2013) [DV ...
  • Погнали! / Getaway (Кортни Соломон, Боевик,Криминал, 2013) [HDRip, Професси ...
  • Посылка / The Package (Джесси Джонсон, боевик, 2013) [HDRip, Профессиональн ...
  • Посылка / The Package (Джесси Джонсон, боевик, 2013) [HDRip, Профессиональн ...
  • Мужество / Wymyk (Грег Зглински, драма, 2011) [DVDRip, Любительский (одного ...
  • Чемпионат Италии 2012-13 / 36-й тур / Рома — Кьево / НТВ+ [07.05.2013, SD, ...
  • Молодежный чемпионат мира 2012 (U-20). Четвертьфинал: Россия - Чехия [02.01 ...
  • Чемпионат Испании 2011-12 / 36-й тур / Реал Мадрид - Севилья / НТВ+ [Футбол ...
  • Чемпионат Европы 2012 / Группа C / 1-й тур / Ирландия — Хорватия / ТРК Футб ...
  • Чемпионат Европы 2012 / Группа D / 1-й тур / Украина - Швеция / Спорт 1 [11 ...
  • Олимпиада 2012 / Мужчины / Группа D / 1-й тур / Испания — Япония / НТВ+ [Фу ...
  • Олимпиада 2012 / Футбол / Мужчины / Группа A / 3-й тур / Великобритания - У ...
  • Tank Feat. T.I. & Kris Stephens / Compliments [2012, RnB,Hip-Hop, HDRip]
  • Буря в Арктике / Arctic Blast (Брайан Тренчард-Смит, фантастика, триллер, 2 ...
  • Скуби-Ду: Нападение Пантазаура / Scooby-Doo! Legend of the Phantosaur (Дугл ...
  • Чемпионат Англии 2011-12 / 35 тур / Манчестер Юнайтед - Эвертон / Спорт 1 [ ...
  • Чемпионат Европы 2012 / Группа B / 1-й тур / Германия - Португалия / Спорт ...
  • Замёрзший мир / 2012: Ice Age (Трэвис Форт, фантастика, боевик, 2011) [HDRi ...
  • Супершторм в Сиэтле / Seattle Superstorm (Джейсон Бурк, фантастика, боевик ...
  • Товарищеский матч 2012 / АмаЗулу (ЮАР) - Манчестер Юнайтед (Англия) / MU TV ...
  • Чемпионат России 2012-13 / 1-й тур / Мордовия - Локомотив / НТВ+ [Футбол, 2 ...
  • Олимпиада 2012 / Женщины, Мужчины / Плавание / Квалификация / НТВ+ [30.07.2 ...
  • Товарищеский матч / Звёзды Малайзии - Манчестер Сити / ТК Футбол [Футбол, 2 ...
  • ХХХ Летние Олимпийские Игры / Лёгкая атлетика / День 7 / Финалы и Полуфинал ...
  • Искажение / Skew (Сейв Челенз, ужасы, триллер, 2011) [HDRip, Профессиональн ...
  • Информация
    Посетители, находящиеся в группе Гости, не могут оставлять комментарии к данной публикации.