вход на сайт

Имя пользователя :
Пароль :

Восстановление пароля Регистрация
Конец света (Богдан Дробязко, Детектив, 2012) [SATRip, Не требуются]
Рейтинг:
(голосов: 1)



[img]{THEME}/images/logopost.png[/img]



Конец света

Год выпуска: 2012
Страна: Россия
Производство: Триикс Медиа
Жанр: Детектив

Режиссёр: Богдан Дробязко
В ролях: Инесса Юрченко, Сергей Щеглов
Актеры: Вячеслав Коробицин, Валентин Кузнецов, Владимир Матвеев, Алексей Фокин, Галина Сумина
Перевод: Не требуются

Описание: Действие фильма происходит в день, когда весь мир ждет очередного конца света, на этот раз по календарю Майя. Город шумит: радио, афиши, люди на улицах — все спекулируют на конце света. У оперативника уголовного розыска н-ского района Соколова в этот день собственный конец света — его выгнала жена, поскольку заподозрила в измене.
«Конец света» — это история длиной в один бесконечный день. Для главного героя — опера Соколова — всё закончится и начнётся заново. Ему нужно лишь пережить этот день.

Качество: SATRip
Продолжительность: 01:23:50 час.
▼"MI" ▼Общее
Полное имя : D:Конец света.2012.SATRip.avi
Формат : AVI
Формат/Информация : Audio Video Interleave
Размер файла : 1,12 Гбайт
Продолжительность : 1 ч. 23 м.
Общий поток : 1916 Кбит/сек
Библиотека кодирования : Boilsoft AVI tool build 1/release

Видео
Идентификатор : 0
Формат : MPEG-4 Visual
Профиль формата : [email protected]
Параметр BVOP формата : Нет
Параметр QPel формата : Нет
Параметр GMC формата : Без точки перехода
Параметр матрицы формата : Default (H.263)
Идентификатор кодека : DX50
Идентификатор кодека/Подсказка : DivX 5
Продолжительность : 1 ч. 23 м.
Битрейт : 1775 Кбит/сек
Ширина : 704 пикс.
Высота : 384 пикс.
Соотношение сторон : 16:9
Частота кадров : 25,000 кадр/сек
Цветовое пространство : YUV
Подвыборка цветности : 4:2:0
Битовая глубина : 8 бит
Тип развёртки : Прогрессивная
Метод сжатия : С потерями
Бит/(Пиксели*Кадры) : 0.263
Размер потока : 1,04 Гбайт (93%)
Библиотека кодирования : XviD 1.2.1 (UTC 2008-12-04)

Аудио
Идентификатор : 1
Формат : MPEG Audio
Версия формата : Version 1
Профиль формата : Layer 3
Режим : Joint stereo
Расширение режима : MS Stereo
Идентификатор кодека : 55
Идентификатор кодека/Подсказка : MP3
Продолжительность : 1 ч. 23 м.
Вид битрейта : Постоянный
Битрейт : 128 Кбит/сек
Каналы : 2 канала
Частота : 48,0 КГц
Метод сжатия : С потерями
Размер потока : 76,8 Мбайт (7%)
Выравнивание : Соединение по промежуткам
Продолжительность промежутка : 24 мс. (0,60 видеокадр)
Время предзагрузки промежутка : 504 ms
Библиотека кодирования : LAME3.98.2
Формат: AVI
Видео кодек:XviD
Аудио кодек: MP3
Видео: 704х384 (16:9), 25 fps, ~1775 kbps avg, 0.263 bit/pixel
Аудио: 48 kHz, MPEG Layer 3, 2 ch, ~128.00 kbps avg

Стол заказов POWER | Отзывы | Вступление в POWER|Раздача до 5 скачавших


95662c8dbd152827562a05bce72d29923457f5ccКонец света (Богдан Дробязко, Детектив, 2012) [SATRip, Не требуются] Конец света (Богдан Дробязко, Детектив, 2012) [SATRip, Не требуются] " />

Аплоадер: Админ, дата: 21-12-2012, 21:43, торрент скачан: 359 раз

Понравилась раздача? Посмотрите эти:
  • Оборотень в погонах (Александр Будённый, детектив, криминальный фильм, 2012 ...
  • [NG] 2210:Конец света? / 2210:The Collapse? (документальный, 2010) [BDRip, ...
  • Вечерний Ургант // Сезон 2. Выпуск 56 (ТВ-шоу, 11.12.2012) [SATRip, Не треб ...
  • Бог любви / God of Love (Люк Мэзени, Короткометражка, фэнтези, комедия, мел ...
  • Любовь по расписанию / Поезд (Сергей Мезенцев, мелодрама, 2012) [HDTVRip, Н ...
  • Вечерний Ургант // Сезон 2. Выпуск 62 (ТВ-шоу, 19.12.2012) [SATRip, Не треб ...
  • Семья (Дмитрий Сорокин, Мелодрама, Комедия, 2012) [SATRip, Не требуются]
  • Вечерний Ургант // Сезон 2. Выпуск 63 (ТВ-шоу, 20.12.2012) [SATRip, Не треб ...
  • Конец света (Богдан Дробязко, Детектив, 2012) [SATRip, Не требуются]
  • Заместитель / Il supplente (Андреа Жублин, Короткометражка, комедия, 2007) ...
  • Вечерний Ургант // Сезон 2. Выпуск 64 (ТВ-шоу, 21.12.2012) [SATRip, Не треб ...
  • Вечерний Ургант // Сезон 2. Выпуск 66 (ТВ-шоу, 25.12.2012) [SATRip, Не треб ...
  • Вечерний Ургант // Сезон 2. Выпуск 68 (ТВ-шоу, 27.12.2012) [SATRip, Не треб ...
  • Дорога на... / Road to (Таисия Игуменцева, Комедия, короткометражный, 2011) ...
  • (2012) Obe 1 Kanobe / Конец света (Все Звезды) (Rap) [MP3, 320 kbps/CBR]
  • Отдам котят в хорошие руки (Александр Баршак, комедия, 2012)[SATRip, не тре ...
  • Детский душ / Baby Shower (Pablo Illanes, Ужасы, 2011) [DVDRip, Любительски ...
  • Конец старого света (документальный, 2012) [SATRip, оригинал]
  • Молодожены (Ольга Доброва-Куликова,Мелодрама,2012) [SATRip, не требуются]
  • Живая тема. Мой муж - марсианин (Документальный, 24.04.2012) [SatRip, Не тр ...
  • Первопрестольная (Документальный, 2012) [SatRip, Не требуется]
  • Лига Чемпионов 2012/13 / Плей-офф / Ответные матчи / Второй день / Обзор / ...
  • Развод по-русски. Выпуск №78. Трагедии звездных семей (Документальный,телеп ...
  • Тайные знаки конца света // Фильм 1 (документальный, 25.11.2012) [SATRip, ...
  • [NG] Подземный мир майя: настоящий конец света / Maya underworld: The real ...
  • Информация
    Посетители, находящиеся в группе Гости, не могут оставлять комментарии к данной публикации.