вход на сайт

Имя пользователя :
Пароль :

Восстановление пароля Регистрация
Оборотень в погонах (Александр Будённый, детектив, криминальный фильм, 2012) [SATRip, Не требуются]
Рейтинг:
(голосов: 1)



[img]{THEME}/images/logopost.png[/img]



Оборотень в погонах

Год выпуска: 2012
Страна: Украина
Жанр: детектив, криминальный фильм

Режиссёр:Александр Будённый
В ролях: Анастасия Макеева, Вячеслав Разбегаев, Михаил Жигалов, Дмитрий Суржиков, Виктор Сарайкин, Олег Примогенов, Антонина Макарчук, Станислав Щёкин, Андрей Павленко, Константин Косинский
Перевод: Не требуются

Описание: Самые сложные, опасные и загадочные преступления, распутать которые, кажется, не под силу обычному человеку, поручают капитану Рыкову. Его острый ум, многолетний опыт, здоровый цинизм и молниеносная реакция не только способствуют высокой раскрываемости, но и становятся основой для неоднозначной репутации. Настолько неоднозначной, что некоторые его знакомые склонны считать, что капитан Рыков, как бы это точнее выразиться, и не человек вовсе… Но кто же он на самом деле?

IMDB: отсутствует


Качество: SATRip
Продолжительность: 01:19:21 час.
"MI" ▼Общее
Полное имя : C:Oboroten.v.pogonah.2012.avi
Формат : AVI
Формат/Информация : Audio Video Interleave
Размер файла : 1,46 Гбайт
Продолжительность : 1 ч. 19 м.
Общий поток : 2636 Кбит/сек
Программа кодирования : VirtualDubMod 1.5.10.3 | www.virtualdub-fr.org || (build 2550/release)
Библиотека кодирования : VirtualDubMod build 2550/release
Видео
Идентификатор : 0
Формат : MPEG-4 Visual
Профиль формата : Advanced [email protected]
Параметр BVOP формата : 1
Параметр QPel формата : Нет
Параметр GMC формата : Без точки перехода
Параметр матрицы формата : Default (H.263)
Идентификатор кодека : XVID
Идентификатор кодека/Подсказка : XviD
Продолжительность : 1 ч. 19 м.
Битрейт : 2434 Кбит/сек
Ширина : 720 пикс.
Высота : 400 пикс.
Соотношение сторон : 16:9
Частота кадров : 25,000 кадр/сек
Цветовое пространство : YUV
Подвыборка цветности : 4:2:0
Битовая глубина : 8 бит
Тип развёртки : Прогрессивная
Метод сжатия : С потерями
Бит/(Пиксели*Кадры) : 0.338
Размер потока : 1,35 Гбайт (92%)
Библиотека кодирования : XviD 1.2.1 (UTC 2008-12-04)
Аудио
Идентификатор : 1
Формат : MPEG Audio
Версия формата : Version 1
Профиль формата : Layer 3
Режим : Joint stereo
Расширение режима : MS Stereo
Идентификатор кодека : 55
Идентификатор кодека/Подсказка : MP3
Продолжительность : 1 ч. 19 м.
Вид битрейта : Постоянный
Битрейт : 192 Кбит/сек
Каналы : 2 канала
Частота : 48,0 КГц
Метод сжатия : С потерями
Размер потока : 109 Мбайт (7%)
Выравнивание : Соединение по промежуткам
Продолжительность промежутка : 40 мс. (1,00 видеокадр)
Время предзагрузки промежутка : 504 ms
Библиотека кодирования : LAME3.98r
Настройки программы : -m j -V 4 -q 2 -lowpass 18.6 -b 192
Sample
Формат: AVI
Видео кодек:XviD
Аудио кодек: MP3
Видео: 720x400 (16:9), 25 fps, ~2400 kbps avg, 0.338 bit/pixel
Аудио: 48 kHz, MPEG Layer 3, 2 ch, ~192.00 kbps avg

Стол заказов POWER | Отзывы | Вступление в POWER|Раздача до 5 скачавших


ecf0d73084b687d3d647295d3b4560f7d6471485Оборотень в погонах (Александр Будённый, детектив, криминальный фильм, 2012) [SATRip, Не требуются] Оборотень в погонах (Александр Будённый, детектив, криминальный фильм, 2012) [SATRip, Не требуются] " />

Аплоадер: Админ, дата: 17-12-2012, 13:14, торрент скачан: 359 раз

Понравилась раздача? Посмотрите эти:
  • Околофутбола (Антон Борматов, драма, криминал, 2013) [DVDRip, Не требуется] ...
  • Злые птицы: Хэллоуин / Angry Birds: HamOWeen (Джей Ройвайнен, Мультфильм, к ...
  • Вечерний Ургант // Сезон 2. Выпуск 56 (ТВ-шоу, 11.12.2012) [SATRip, Не треб ...
  • 1812: Уланская баллада (Олег Фесенко, приключения, 2012) [DVDRip, Не требуе ...
  • Оборотень в погонах (Александр Будённый, детектив, криминальный фильм, 2012 ...
  • Бог любви / God of Love (Люк Мэзени, Короткометражка, фэнтези, комедия, мел ...
  • Любовь по расписанию / Поезд (Сергей Мезенцев, мелодрама, 2012) [HDTVRip, Н ...
  • Вечерний Ургант // Сезон 2. Выпуск 62 (ТВ-шоу, 19.12.2012) [SATRip, Не треб ...
  • Семья (Дмитрий Сорокин, Мелодрама, Комедия, 2012) [SATRip, Не требуются]
  • Вечерний Ургант // Сезон 2. Выпуск 63 (ТВ-шоу, 20.12.2012) [SATRip, Не треб ...
  • Конец света (Богдан Дробязко, Детектив, 2012) [SATRip, Не требуются]
  • Заместитель / Il supplente (Андреа Жублин, Короткометражка, комедия, 2007) ...
  • Вечерний Ургант // Сезон 2. Выпуск 64 (ТВ-шоу, 21.12.2012) [SATRip, Не треб ...
  • Вечерний Ургант // Сезон 2. Выпуск 66 (ТВ-шоу, 25.12.2012) [SATRip, Не треб ...
  • Вечерний Ургант // Сезон 2. Выпуск 68 (ТВ-шоу, 27.12.2012) [SATRip, Не треб ...
  • Дорога на... / Road to (Таисия Игуменцева, Комедия, короткометражный, 2011) ...
  • Покорить высоту / Take It to the Limit (Сэм Кит / Sam Kieth, семейный, 2000 ...
  • Отдам котят в хорошие руки (Александр Баршак, комедия, 2012)[SATRip, не тре ...
  • Детский душ / Baby Shower (Pablo Illanes, Ужасы, 2011) [DVDRip, Любительски ...
  • Молодожены (Ольга Доброва-Куликова,Мелодрама,2012) [SATRip, не требуются]
  • Силиконовая Долина (Документальный, 2012) [SatRip, Профессиональный (одного ...
  • Развод по-русски. Выпуск №78. Трагедии звездных семей (Документальный,телеп ...
  • Обратный билет (Александр Кананович, Мелодрама, 2012) [SATRip, Не требуется ...
  • Бюро находок : Потерянный и найденный / Lost and Found (Филип Хант, коротко ...
  • Человек из банки (Иван Кульнев, Комедия, 2012) [DVDRip, Не требуется]
  • Информация
    Посетители, находящиеся в группе Гости, не могут оставлять комментарии к данной публикации.