вход на сайт

Имя пользователя :
Пароль :

Восстановление пароля Регистрация
Джентльмен в коричневом / The Man in the Brown Suit (Алан Гринт, детектив, 1989) [DVDRip, профессиональный (двухголосый)]
Рейтинг:
(голосов: 1)



[img]{THEME}/images/logopost.png[/img]



Джентльмен в коричневом / The Man in the Brown Suit
●Год выпуска: 1989
●Страна: США
●Производство: Alan Shayne Productions
●Жанр: детектив
●Режиссёр: Алан Гринт
●В ролях: Ру МакКлэнахэн, Тони Рэндолл, Эдвард Вудворд, Стефани Зимбалист, Кен Хауард, Николас Грэйс, Саймон Даттон, Мария Касал, Федерико Лучано, Роуз МакВей, Хорхе Боссо, Хосе Каналейяс, Роберт Кейс, Джеймс Дагган, Гэбриел Эду, Билл Холден, Антонио Росс, Альдо Самбрелл, Джек Тейлор, Клаудио Винсент
●Перевод: профессиональный (двухголосый)
●Субтитры: нет
●Описание: Действие происходит на Средиземноморье. На борту прогулочного судна в одной из кают помещен тайник с украденными в Южной Африке бриллиантами. Записка, указывающая на тайник, случайно попала в руки юной американской туристки. С этого момента за ней начинается охота…
●IMDB: 5.70 (306)
●КиноПоиск: 7.409 (22)
●Качество: DVDRip
●Продолжительность: 01:35:27 час.
●Media Info ▼Text General
Format : AVI
Format/Info : Audio Video Interleave
File size : 1.46 GiB
Duration : 1h 35mn
Overall bit rate : 2 185 Kbps
Movie name : Мужчина в коричневом костюме / Man in the Brown Suit, The (1989)
Copyright : HeDgEhOt®
Video #0
ID : 0
Format : MPEG-4 Visual
Format profile : [email protected]
Format settings, BVOP : Yes
Format settings, QPel : No
Format settings, GMC : No warppoints
Format settings, Matrix : Default (MPEG)
Codec ID : XVID
Codec ID/Hint : XviD
Duration : 1h 35mn
Bit rate : 1 787 Kbps
Width : 640 pixels
Height : 480 pixels
Display aspect ratio : 4:3
Frame rate : 23.976 fps
Resolution : 24 bits
Colorimetry : 4:2:0
Scan type : Progressive
Bits/(Pixel*Frame) : 0.243
Stream size : 1.19 GiB (82%)
Writing library : XviD 1.2.1 (UTC 2008-12-04)
Audio #1
ID : 1
Format : AC-3
Format/Info : Audio Coding 3
Codec ID : 2000
Duration : 1h 35mn
Bit rate mode : Constant
Bit rate : 192 Kbps
Channel(s) : 1 channel
Channel positions : C
Sampling rate : 48.0 KHz
Stream size : 131 MiB (9%)
Alignment : Split accross interleaves
Interleave, duration : 42 ms (1.00 video frame)
Interleave, preload duration : 500 ms
Language : c / English
Audio #2
ID : 2
Format : AC-3
Format/Info : Audio Coding 3
Codec ID : 2000
Duration : 1h 35mn
Bit rate mode : Constant
Bit rate : 192 Kbps
Channel(s) : 1 channel
Channel positions : C
Sampling rate : 48.0 KHz
Stream size : 131 MiB (9%)
Alignment : Split accross interleaves
Interleave, duration : 42 ms (1.00 video frame)
Interleave, preload duration : 500 ms
●Формат: AVI
●Видео кодек: XviD
●Аудио кодек: AC3
●Видео: 640x480 (1.33:1), 23.976 fps, XviD build 50 ~1787 kbps avg, 0.24 bit/pixel
●Аудио 1: Русский: 48 kHz, AC3 Dolby Digital, 1/0 (C) ch, ~192 kbps | P2
●Аудио 2: Английский: 48 kHz, AC3 Dolby Digital, 1/0 (C) ch, ~192 kbps | Оригинал


d3eb3888bbfe511c689237cf7410525af2e9716cДжентльмен в коричневом / The Man in the Brown Suit (Алан Гринт, детектив, 1989) [DVDRip, профессиональный (двухголосый)] Джентльмен в коричневом / The Man in the Brown Suit (Алан Гринт, детектив, 1989) [DVDRip, профессиональный (двухголосый)] " />

Аплоадер: Админ, дата: 12-04-2012, 17:10, торрент скачан: 359 раз

Понравилась раздача? Посмотрите эти:
  • Вирус / Flu (Ким Сон Су, Драма, 2013) [HDTVRip, Любительский (двухголосый з ...
  • Верное дельце / Une pure affaire (Александр Коффре, Боевик, Комедия, Кримин ...
  • Посылка / The Package (Джесси Джонсон, боевик, 2013) [HDRip, Профессиональн ...
  • Мужество / Wymyk (Грег Зглински, драма, 2011) [DVDRip, Любительский (одного ...
  • Слабые проблески / Rushlights (Энтони Стац, Триллер, Мелодрама, Криминал, 2 ...
  • Звук моего голоса / Sound of My Voice (Зал Батманглидж, триллер, драма, 201 ...
  • Слепой поворот / Blind Turn (Роберт Орр, Триллер, драма, детектив, 2012) [W ...
  • 23:59 / 23:59 (Гилберт Чан, Ужасы, 2011) [HDRip, Любительский (одноголосый ...
  • Чемпионат Германии 2012-2013 / 32-й тур / Обзор матчей / Футбол + (UA) [06. ...
  • Чемпионат Италии 2012-13 / 36-й тур / Рома — Кьево / НТВ+ [07.05.2013, SD, ...
  • Псы войны / The Dogs of War (Джон Ирвин, боевик, драма, приключения, военны ...
  • Тюремщик / Screwed (Рег Тревисс / Reg Traviss, Драма, 2011) [DVDRip , Люби ...
  • Плохая актриса / Bad Actress (Роберт Ли Кинг, комедия, 2011) [DVDRip, Профе ...
  • Супер циклон / Super Cyclone (Лиз Адамс / Liz Adams, боевик, 2012) [HDRip, ...
  • Захват / Carjacked (Джон Бонито, триллер, 2011)[BDRip, Профессиональный (мн ...
  • Формула 1 2011 / Этап 17 из 19 / Гран-При Индии / Гонка / Спорт 1 [30.10.20 ...
  • Чемпионат Европы 2012 / Группа C / 1-й тур / Ирландия — Хорватия / ТРК Футб ...
  • Tank Feat. T.I. & Kris Stephens / Compliments [2012, RnB,Hip-Hop, HDRip]
  • Неделя в NBA с В.Гомельским / НТВ+ [28.06.2011, SD, XviD, RU, SAT]
  • Хитрая ворона (Галина Баринова, короткометражный мультфильм, 1980) [DVDRip, ...
  • Похищение / Rapt / Lösegeld (Люка Бельво, триллер, 2009) [HDRip, профессион ...
  • Трус / Faintheart (Вито Рокко, Комедия, 2008) [BDRip, Профессиональный (дву ...
  • Супершторм в Сиэтле / Seattle Superstorm (Джейсон Бурк, фантастика, боевик ...
  • Олимпиада 2012 / Женщины, Мужчины / Плавание / Квалификация / НТВ+ [30.07.2 ...
  • Инкубус / Inkubus (Гленн Чиано, Ужасы, 2011) [DVDRip, Профессиональный (мно ...
  • Информация
    Посетители, находящиеся в группе Гости, не могут оставлять комментарии к данной публикации.