вход на сайт

Имя пользователя :
Пароль :

Восстановление пароля Регистрация
К-9: Рождественские приключения / K9 Adventures: A Christmas Tale (Бен Гурли, Семейный, 2012) [DVDRip, Профессиональный (многоголосый, закадровый)]
Рейтинг:
(голосов: 1)



[img]{THEME}/images/logopost.png[/img]



• К-9: Рождественские приключения / K9 Adventures: A Christmas Tale •
♥ Год выпуска: 2012
♥ Страна: США
♥ Производство: Wulf / Gourley Productions
♥ Жанр: Семейный

♥ Режиссёр: Бен Гурли
♥ В ролях: Люк Перри, Тейлор Негрон, Адам Джонсон, Шантель Фландерс, Бренден Уитни, Джэйк Суазо, Cate Ganiere, Ariana Bagley, Braxton Hew-Len, Chloe Richmond...

♥ Перевод: Профессиональный (многоголосый, закадровый)
♥ Субтитры: Нет

♥ Описание: Бывший полицейский пес по кличке Скут попадает в беду, но от неминуемой гибели его спасает девочка Кэсси. Подружившись, Скут и Кэсси помогают детскому хору собирать рождественские пожертвования для обездоленных детей. Но однажды, когда они появляются в офисе отца Кэсси, Скут узнает своих обидчиков, которые к тому же оказываются мошенниками и хотят завладеть всеми собранными деньгами. Теперь друзьям предстоит остановить мошенников и спасти Рождественский праздник.
♥ Качество: DVDRip | исх.DVD5 R5
♥ Продолжительность: 01:25:31

♥ Формат: AVI
♥ Видео кодек: XviD
♥ Аудио кодек: AC3
♥ Видео: 720x400 (16:9), 25.000 fps, AVI2 238 kbps avg, 0.311 bit/pixel
♥ Аудио: 48 kHz, AC3,2 ch, ~192 kbps avg

♥ Релиз на DVD: 13 декабря 2012, «Мистерия Звука»

"Mediainfo" ▼

Общее
Формат : AVI
Формат/Информация : Audio Video Interleave
Размер файла : 1,46 Гбайт
Продолжительность : 1 ч. 25 м.
Общий поток : 2439 Кбит/сек
Программа кодирования : VirtualDubMod 1.5.10.3 (build 2550/release)
Библиотека кодирования : VirtualDubMod build 2550/release

Видео
Идентификатор : 0
Формат : MPEG-4 Visual
Профиль формата : Advanced [email protected]
Параметр BVOP формата : 1
Параметр QPel формата : Нет
Параметр GMC формата : Без точки перехода
Параметр матрицы формата : Выборочная
Идентификатор кодека : XVID
Идентификатор кодека/Подсказка : XviD
Продолжительность : 1 ч. 25 м.
Битрейт : 2238 Кбит/сек
Ширина : 720 пикселей
Высота : 400 пикселей
Соотношение сторон : 16:9
Частота кадров : 25,000 кадров/сек
Цветовое пространство : YUV
Субдискретизация насыщенности : 4:2:0
Битовая глубина : 8 бит
Тип развёртки : Прогрессивная
Метод сжатия : С потерями
Бит/(Пиксели*Кадры) : 0.311
Размер потока : 1,34 Гбайт (92%)
Библиотека кодирования : XviD 65

Аудио
Идентификатор : 1
Формат : AC-3
Формат/Информация : Audio Coding 3
Расширение режима : CM (complete main)
Параметр Endianness формата : Big
Идентификатор кодека : 2000
Продолжительность : 1 ч. 25 м.
Вид битрейта : Постоянный
Битрейт : 192 Кбит/сек
Каналы : 2 канала
Расположение каналов : Front: L R
Частота : 48,0 КГц
Битовая глубина : 16 бит
Метод сжатия : С потерями
Размер потока : 117 Мбайт (8%)
Выравнивание : Разделение по промежуткам
Продолжительность промежутка : 40 мс. (1,00 видеокадр)
Время предзагрузки промежутка : 500 мс.


Релиз Группы "Virtus"

Стол заказов / Вступление в РГ / Благодарности, критика и другое


7cd0ba248e21408633b68e4e181b521805716a38К-9: Рождественские приключения / K9 Adventures: A Christmas Tale (Бен Гурли, Семейный, 2012) [DVDRip, Профессиональный (многоголосый, закадровый)] К-9: Рождественские приключения / K9 Adventures: A Christmas Tale (Бен Гурли, Семейный, 2012) [DVDRip, Профессиональный (многоголосый, закадровый)] " />

Аплоадер: Админ, дата: 20-12-2012, 06:50, торрент скачан: 359 раз

Понравилась раздача? Посмотрите эти:
  • Слежка / The Letter (Джей Ананья, Триллер, драма, 2012) [DVDRip, Профессион ...
  • Миллион для чайников / The Brass Teapot (Рамаа Мосли, Фэнтези, триллер, ком ...
  • Снежная королева (Максим Свешников, Владлен Барбэ, Мультфильм, фэнтези, при ...
  • Глушь / Resurrection County (Матт Зеттел, Ужасы,триллер, 2008) [DVDRip, Про ...
  • Двенадцать бедствий на Рождество / The 12 Disasters of Christmas (Стивен Р. ...
  • Приключения Икабода и Мистера Тоада / The Adventures Of Ichabod And Mr. Toa ...
  • Принцесса-лебедь: Рождество / The Swan Princess Christmas (Ричард Рич, Муль ...
  • Отбой / Taps (Харольд Беккер, Драма, 1981) [DVDRip, Профессиональный (много ...
  • Путешествие на дно моря / Voyage to the Bottom of the Sea (Ирвин Аллен / I ...
  • Путешествие на дно моря / Voyage to the Bottom of the Sea (Ирвин Аллен / I ...
  • Кажется, я люблю свою жену / I Think I Love My Wife (Крис Рок, Драма, мелод ...
  • Темный сахар / Brown Sugar (Рик Фамуйива, Драма, мелодрама, комедия, музыка ...
  • Вечерний Ургант // Сезон 2. Выпуск 56 (ТВ-шоу, 11.12.2012) [SATRip, Не треб ...
  • 1812: Уланская баллада (Олег Фесенко, приключения, 2012) [DVDRip, Не требуе ...
  • К-9: Рождественские приключения / K9 Adventures: A Christmas Tale (Бен Гурл ...
  • Вечерний Ургант // Сезон 2. Выпуск 62 (ТВ-шоу, 19.12.2012) [SATRip, Не треб ...
  • Вечерний Ургант // Сезон 2. Выпуск 63 (ТВ-шоу, 20.12.2012) [SATRip, Не треб ...
  • Вечерний Ургант // Сезон 2. Выпуск 66 (ТВ-шоу, 25.12.2012) [SATRip, Не треб ...
  • Покорить высоту / Take It to the Limit (Сэм Кит / Sam Kieth, семейный, 2000 ...
  • Боец из трущоб / Gutter King (Кейт Алан Моррис / Keith Alan Morris, боевик, ...
  • Кошмар / Nightmare / Qing Yan (Херман Яу, ужасы, триллер, 2012) [DVDRip, Лю ...
  • Приключения Тинтина: Тайна Единорога / The Adventures of Tintin (Стивен Спи ...
  • Нет мужчин - нет проблем / Without Men (Габриела Тальявини, Комедия, 2011) ...
  • Глаз шторма / The Eye of the Storm (Фред Скеписи, Драма, 2011) [HDRip, Проф ...
  • Человек из банки (Иван Кульнев, Комедия, 2012) [DVDRip, Не требуется]
  • Информация
    Посетители, находящиеся в группе Гости, не могут оставлять комментарии к данной публикации.