вход на сайт

Имя пользователя :
Пароль :

Восстановление пароля Регистрация
Сказки песка (Андрей Росс, мюзикл, 2009) [HDTVRip, Не требуется]
Рейтинг:
(голосов: 1)



[img]{THEME}/images/logopost.png[/img]



Сказки песка

Год выпуска: 2009
Страна: Россия
Производство: Студия "Dominant"
Жанр: мюзикл

Режиссёр: Андрей Росс
В ролях: Вилена Ермолаева, Михаил Циталашвили, Геннадий Легенда, Глория Дели, Мурат Насыров, Марго Лямис, Елена Марунова, Вилена Шамахан, Наталья Антипова, Маргарита Меньшикова

Перевод: Не требуется
Субтитры: Отсутствуют

Описание:
Однажды, во дворец восточного юного принца чёрный воин принёс пленённую светловолосую девочку. Её обучили премудростям востока. Принц полюбил невольницу, но девочка внезапно исчезла, как и появилась.


Дополнительно:
MediaInfo ▼Text
Общее
Полное имя :D:Сказки пескаSkazki peska.avi
Формат :AVI
Размер :2.40 GiB
Продолжительность :02:10:44.128
Общий поток :2 628 Kbps
Программа кодирования :Lavf51.12.1

Видео
Идентификатор :0
Формат :xvid
Идентификатор кодека :xvid
Продолжительность :2h 10mn 44s 77ms
Битрейт :2 488 Kbps
Ширина :1 280 pixels
Высота :720 pixels
Соотношение сторон :1.778
Частота кадров :29.970 fps
Бит/(Пиксели*Кадры) :0.090
Размер потока :2.27 GiB (95%)

Аудио #1
Идентификатор :1
Формат :MPEG Audio
Идентификатор кодека :55
Продолжительность :02:10:44.128
Вид битрейта :Constant
Битрейт :128 Kbps
Канал(ы) :2 channels
Частота :44.1 KHz
Метод сжатия :Lossy
Размер потока :120 MiB (5%)



Тех. данные:
Качество:HDTVRip
Продолжительность:02:10:48 час

Формат: AVI
Видео кодек: xvid
Аудио кодек: MPA1L3
Видео: 1280 x 720 (16:9), 29.970 fps, 2 488 Kbps, 0.090 bit/pixel
Аудио : 44.1 KHz, , 2 channels (), 128 Kbps



3b6a2ba09ec4414aa4a6cb84919952d5a62297deСказки песка (Андрей Росс, мюзикл, 2009) [HDTVRip, Не требуется] Сказки песка (Андрей Росс, мюзикл, 2009) [HDTVRip, Не требуется] " />

Аплоадер: Админ, дата: 29-12-2012, 23:24, торрент скачан: 359 раз

Понравилась раздача? Посмотрите эти:
  • Биндюжник и король (2 части из 2) (Владимир Алеников, мюзикл, драма, комеди ...
  • Однажды на матрасе / Once Upon a Mattress (Кэтлин Маршалл, мюзикл, мелодрам ...
  • Дон Сезар де Базан (2 части из 2) (Ян Фрид, мюзикл, комедия, 1989) [DVDRip, ...
  • Небесные ласточки (2 части из 2) (Леонид Квинихидзе, мюзикл, драма, комедия ...
  • Мама (Элизабета Бостан, мюзикл, фэнтези, семейный, 1976) [DVDRip, Не требуе ...
  • Князь Игорь (Роман Тихомиров, мюзикл, приключения, 1969) [DVDRip, Не требуе ...
  • Шелковица / Молодость. Выпуск 2 (Геннадий Мелконян, Андрей Ермаш, Автандил ...
  • Крепостная актриса (Роман Тихомиров, мюзикл, 1964) [DVDRip, Не требуется]
  • Огонь, вода и ... медные трубы // Золотые рога // Варвара-краса, длинная ко ...
  • Сватовство гусара (Светлана Дружинина, мюзикл, мелодрама, комедия, 1979) [D ...
  • Первая перчатка (Андрей Фролов, мюзикл, мелодрама, комедия, спорт, 1946) [D ...
  • Табачный капитан (Игорь Усов, мюзикл, комедия, история, 1972) [DVDRip, Не т ...
  • Таинственный остров (Эдуард Пенцлин, фантастика, приключения, семейный, 194 ...
  • У матросов нет вопросов (Владимир Роговой, мюзикл, комедия, 1980) [DVDRip, ...
  • Светлая личность (Александр Павловский, мюзикл, комедия, 1989) [DVDRip, Не ...
  • Шельменко-денщик (Андрей Тутышкин, мюзикл, комедия, 1971) [DVDRip, Не требу ...
  • Собака на сене (Реставрирован) (Ян Фрид, мюзикл, комедия, 1977) [DVDRip, Не ...
  • Приморский бульвар (2 части из 2) (Александр Полынников, мюзикл, комедия, 1 ...
  • Сказки старого волшебника (2 части из 2) (Наталья Збандут, фэнтези, мелодра ...
  • ... и ещё одна ночь Шахерезады / Новые сказки Шахерезады / Последняя ночь Ш ...
  • Чи-Ли ft. Гоша Куценко / Сказки (2009)
  • [KZ] Казыбек Шайх.Казахские народные сказки / Казыбек Шайх.Казак халык ерте ...
  • Г.А.Мачинцев. Мифы и сказки Древнего Египта (мифы и сказки) [Pdf, NQ]
  • Свадьба в Малиновке (Андрей Тутышкин, мюзикл, комедия, 1967) [BDRip, Не тре ...
  • (2012) Мурат Насыров / The Best (Pop) [MP3, 320/CBR]
  • Информация
    Посетители, находящиеся в группе Гости, не могут оставлять комментарии к данной публикации.