вход на сайт

Имя пользователя :
Пароль :

Восстановление пароля Регистрация
Мармадюк / Marmaduke (Том Дей, комедия, семейный, 2010) [BDRip-AVC, Дублированный + Оригинал + Sub]
Рейтинг:
(голосов: 1)



[img]{THEME}/images/logopost.png[/img]



Мармадюк / Marmaduke
«Живи по-крупному»

Год выпуска: 2010
Страна: США
Производство: Twentieth Century Fox Fil
Жанр: комедия, семейный

Режиссёр: Том Дей
В ролях: Оуэн Уилсон, Эмма Стоун, Джордж Лопез, Raugi Yu, Кристофер Минц-Плассе, Стив Кугэн, Стэйси Фергюсон, Кифер Сазерленд, Марлон Уайанс, Дэймон Уайанс мл.

Перевод: Дублированный + Оригинал
Субтитры: Русские, Английские

Описание: Семья переезжает в новый дом и новым соседям придется привыкнуть к тому, что датский дог по имени Мармадюк вносит постоянный хаос в их жизнь — его хозяева к этому уже давно привыкли.
"Знаете ли вы, что..." ▼Фильм «Мармадьюк» — это экранизация газетных комиксов Брэда Андерсона о вредном и хулиганистом доге, живущем в семье Уилсонов.

В оригинальном комиксе Мармадюк никогда не разговаривал."Награды и премии" ▼Золотая малина, 2011 год
Номинации (1):
* Худшая мужская роль второго плана (Джордж Лопез)


Качество: BDRip-AVC(Исх. BDRemux)
Продолжительность: 01:28:09 час.

Формат: MKV
Видео кодек: AVC
Аудио кодек: AC3 Dolby Digital
Видео: 1024х432 (2.35:1), 23,976 fps, AVC ~2 759 kbps, 0.260 bit/pixel
Аудио: 48 kHz, AC3 Dolby Digital, 3/2 (L,C,R,l,r) + LFE ch, ~384 kbps| Russian (DUB)
Аудио: 48 kHz, AC3 Dolby Digital, 3/2 (L,C,R,l,r) + LFE ch, ~384 kbps| English

Премьера (мир): 27 мая 2010
Премьера (РФ): 3 июня 2010, «Двадцатый Век Фокс СНГ»
Mediainfo ▼General
Complete name : F:Marmadjuk.chopper887.mkv
Format : Matroska
File size : 2.17 GiB
Duration : 1h 28mn
Overall bit rate : 3 529 Kbps
Movie name : сhopper887
Encoded date : UTC 2010-08-19 14:22:51
Writing application : mkvmerge v3.0.0 (Hang up your Hang-Ups) built on Dec 12 2009 15:20:35
Writing library : libebml v0.7.9 + libmatroska v0.8.1
Video
ID : 1
Format : AVC
Format/Info : Advanced Video Codec
Format profile : [email protected]
Format settings, CABAC : Yes
Format settings, ReFrames : 9 frames
Muxing mode : Container [email protected]
Codec ID : V_MPEG4/ISO/AVC
Duration : 1h 28mn
Bit rate : 2 759 Kbps
Width : 1 024 pixels
Height : 432 pixels
Display aspect ratio : 2.35:1
Frame rate : 23.976 fps
Color space : YUV
Chroma subsampling : 4:2:0
Bit depth : 8 bits
Scan type : Progressive
Bits/(Pixel*Frame) : 0.260
Stream size : 1.66 GiB (76%)
Title : Marmaduke-BD-AVC.rutracker.org
Writing library : x264 core 104 r1677 19df41a
Encoding settings : cabac=1 / ref=9 / deblock=1:-2:-1 / analyse=0x3:0x133 / me=umh / subme=9 / psy=1 / psy_rd=1.00:0.10 / mixed_ref=0 / me_range=32 / chroma_me=1 / trellis=2 / 8x8dct=1 / cqm=0 / deadzone=21,11 / fast_pskip=0 / chroma_qp_offset=-3 / threads=3 / sliced_threads=0 / nr=0 / decimate=1 / interlaced=0 / constrained_intra=0 / bframes=9 / b_pyramid=2 / b_adapt=2 / b_bias=0 / direct=1 / weightb=1 / open_gop=0 / weightp=2 / keyint=250 / keyint_min=23 / scenecut=40 / intra_refresh=0 / rc_lookahead=10 / rc=2pass / mbtree=1 / bitrate=2759 / ratetol=1.0 / qcomp=0.60 / qpmin=10 / qpmax=51 / qpstep=4 / cplxblur=20.0 / qblur=0.5 / ip_ratio=1.40 / aq=1:1.10
Language : English
Audio #1
ID : 2
Format : AC-3
Format/Info : Audio Coding 3
Mode extension : CM (complete main)
Codec ID : A_AC3
Duration : 1h 28mn
Bit rate mode : Constant
Bit rate : 384 Kbps
Channel(s) : 6 channels
Channel positions : Front: L C R, Side: L R, LFE
Sampling rate : 48.0 KHz
Stream size : 242 MiB (11%)
Title : Дубляж
Audio #2
ID : 3
Format : AC-3
Format/Info : Audio Coding 3
Mode extension : CM (complete main)
Codec ID : A_AC3
Duration : 1h 28mn
Bit rate mode : Constant
Bit rate : 384 Kbps
Channel(s) : 6 channels
Channel positions : Front: L C R, Side: L R, LFE
Sampling rate : 48.0 KHz
Stream size : 242 MiB (11%)
Title : Английский
Text #1
ID : 4
Format : UTF-8
Codec ID : S_TEXT/UTF8
Codec ID/Info : UTF-8 Plain Text
Title : Русские
Text #2
ID : 5
Format : UTF-8
Codec ID : S_TEXT/UTF8
Codec ID/Info : UTF-8 Plain Text
Title : Английские


1724772ad3363906e91d156a1691d18f97b90d33Мармадюк / Marmaduke (Том Дей, комедия, семейный, 2010) [BDRip-AVC, Дублированный + Оригинал + Sub] Мармадюк / Marmaduke (Том Дей, комедия, семейный, 2010) [BDRip-AVC, Дублированный + Оригинал + Sub] " />

Аплоадер: Админ, дата: 18-04-2012, 20:48, торрент скачан: 359 раз

Понравилась раздача? Посмотрите эти:
  • Зубная фея 2 / Tooth Fairy 2 (Алекс Замм, комедия, семейный, 2012) [BDRip 7 ...
  • Таможня дает добро / Rien а declarer (Дэни Бун, комедия, 2010) [BDRip-AVC, ...
  • Впритык / Due Date (Тодд Филлипс, драма, комедия, 2010) [HDRip-AVC, Професс ...
  • Хранитель времени / Hugo (Мартин Скорсезе, Драма, 2011) [BDRip-AVC, Професс ...
  • Персонаж / Stranger Than Fiction (Марк Форстер, Комедия, драма, фантастика, ...
  • Команда «А» / The A-Team (Джо Карнахан, боевик, триллер, комедия, приключен ...
  • Безумное свидание / Date Night [Extended Edition] (Шон Леви, триллер, мелод ...
  • Бедная богатая девочка / Young Adult (Джейсон Райтман, драма, комедия, 2011 ...
  • Вампирский засос / Vampires Suck (Джейсон Фридберг, Аарон Зельцер, комедия, ...
  • Робин Гуд [Режиссёрская версия] / Robin Hood [Directors Cut] (Ридли Скотт / ...
  • Сутенер / Le mac (Паскаль Бюрдо / Pascal Bourdiaux, комедия, криминал, 2010 ...
  • Идеальный Голос / Pitch Perfect (Джейсон Мур, Комедия, музыка, 2012) [BDRip ...
  • Мармадюк / Marmaduke (Том Дей, Комедия, семейный, 2010) [HDRip-AVC, Дубляж] ...
  • [3D] Глаз ребенка / Childs Eye (Оксид Пан, ужасы, 2010) [BDRip, Дублированн ...
  • Исходный код / Source Code (Дункан Джонс, фантастика, боевик, триллер, 2011 ...
  • Рыжий пес / Red Dog (Крив Стендерс, драма, комедия, семейный, 2011) [BDRip ...
  • Mylene Farmer / Du Temps [2011, Pop, HDTVRip]
  • Мармадюк / Marmaduke (Том Дей, комедия, семейный, 2010) [DVDRip-AVC, Профес ...
  • Мармадюк / Marmaduke (Том Дей, комедия, семейный, 2010) [HDRip, дубляж]
  • Мармадюк / Marmaduke (Том Дей, комедия, семейный, 2010) [BDRip,Профессионал ...
  • Информация
    Посетители, находящиеся в группе Гости, не могут оставлять комментарии к данной публикации.