вход на сайт

Имя пользователя :
Пароль :

Восстановление пароля Регистрация
Артур и война двух миров / Arthur et la guerre des deux mondes (Люк Бессон / Luc Besson, фэнтези, приключения, семейный, 2010) [HDRip-AVC, Профессиональный (полное дублированние)]
Рейтинг:
(голосов: 1)



[img]{THEME}/images/logopost.png[/img]



Артур и война двух миров / Arthur et la guerre des deux mondes

Год выпуска: 2010
Страна: Франция
Производство: Europa Corp.
Жанр: ужасы, триллер, детектив

Режиссёр: Люк Бессон / Luc Besson
В ролях: Филипп Бледный, Диомид Виноградов, Владимир Зайцев, Мария Кожевникова, Дмитрий Курта

Перевод: Профессиональный (полное дублированние) [лицензия]
Субтитры: Русские, французские

Описание: Какие дьявольские планы собирается осуществить Урдалак, чтобы завоевать новый мир, в который он переместился обманным путем? Как Артур, оставшийся в мире минипутов, сможет победить жестокого Ужасного У? Чтобы сохранить любовь прекрасной принцессы Селении, Артур готов вступить в бой против Урдалака как в мире минипутов, так и в большом реальном мире…



Качество: HDRip-AVC [Исх. BDRip 1080p]
Продолжительность: 01:41:09

Формат: MKV
Видео кодек: x264
Аудио кодек: AC3 Dolby Digital
Видео: 868x368 (2.35:1), 23,976 fps, ~1674 kbps avg, 0.219 bit/pixel
Аудио: 48 kHz, AC3 Dolby Digital, 3/2 (L,C,R,l,r) + LFE ch, ~384.00 kbps avg

Дата премьеры (мир): 22 августа 2010
Дата премьеры (РФ): 18 ноября 2010, «Централ Партнершип»

MediaInfo ▼General
Unique ID : 176356635074356202320304139212332145977 (0x84AD0D6C9574BA91A10428B72C931D39)
Complete name : I:OtherArtur.i.vojna.dvuh.mirov.2010.x264.Dub.HDRip.VaipppArtur.i.vojna.dvuh.mirov.2010.x264.Dub.HDRip.mkv
Format : Matroska
File size : 1.46 GiB
Duration : 1h 41mn
Overall bit rate : 2 060 Kbps
Movie name : Артур и война двух миров (2010) Release by Vaippp
Encoded date : UTC 2011-02-13 15:39:09
Writing application : mkvmerge v4.4.0 (Die Wiederkehr) сборка от Oct 31 2010 21:52:48
Writing library : libebml v1.0.0 + libmatroska v1.0.0
Video
ID : 1
Format : AVC
Format/Info : Advanced Video Codec
Format profile : [email protected]
Format settings, CABAC : Yes
Format settings, ReFrames : 7 frames
Codec ID : V_MPEG4/ISO/AVC
Duration : 1h 41mn
Bit rate : 1 674 Kbps
Width : 868 pixels
Height : 368 pixels
Display aspect ratio : 2.35:1
Frame rate : 23.976 fps
Color space : YUV
Chroma subsampling : 4:2:0
Bit depth : 8 bits
Scan type : Progressive
Bits/(Pixel*Frame) : 0.219
Stream size : 1.15 GiB (79%)
Title : HDRip by Vaippp
Writing library : x264 core 112 r1867 22bfd31
Encoding settings : cabac=1 / ref=7 / deblock=1:-1:-1 / analyse=0x3:0x113 / me=umh / subme=9 / psy=1 / psy_rd=0.80:0.00 / mixed_ref=1 / me_range=32 / chroma_me=1 / trellis=1 / 8x8dct=1 / cqm=0 / deadzone=21,11 / fast_pskip=0 / chroma_qp_offset=-2 / threads=4 / sliced_threads=0 / nr=0 / decimate=1 / interlaced=0 / constrained_intra=0 / bframes=6 / b_pyramid=2 / b_adapt=2 / b_bias=0 / direct=3 / weightb=1 / open_gop=0 / weightp=2 / keyint=250 / keyint_min=23 / scenecut=40 / intra_refresh=0 / rc_lookahead=60 / rc=2pass / mbtree=1 / bitrate=1674 / ratetol=1.0 / qcomp=0.60 / qpmin=10 / qpmax=51 / qpstep=4 / cplxblur=20.0 / qblur=0.5 / ip_ratio=1.40 / aq=1:0.60 / zones=133675,145516,q=26
Language : French
Audio
ID : 2
Format : AC-3
Format/Info : Audio Coding 3
Mode extension : CM (complete main)
Codec ID : A_AC3
Duration : 1h 41mn
Bit rate mode : Constant
Bit rate : 384 Kbps
Channel(s) : 6 channels
Channel positions : Front: L C R, Side: L R, LFE
Sampling rate : 48.0 KHz
Bit depth : 16 bits
Compression mode : Lossy
Stream size : 278 MiB (19%)
Title : Дубляж
Language : Russian
Text #1
ID : 3
Format : UTF-8
Codec ID : S_TEXT/UTF8
Codec ID/Info : UTF-8 Plain Text
Language : Russian
Text #2
ID : 4
Format : UTF-8
Codec ID : S_TEXT/UTF8
Codec ID/Info : UTF-8 Plain Text
Language : French

1041a36884590abd63ab03708eed3732f5cc6bb0Артур и война двух миров / Arthur et la guerre des deux mondes (Люк Бессон / Luc Besson, фэнтези, приключения, семейный, 2010) [HDRip-AVC, Профессиональный (полное дублированние)] Артур и война двух миров / Arthur et la guerre des deux mondes (Люк Бессон / Luc Besson, фэнтези, приключения, семейный, 2010) [HDRip-AVC, Профессиональный (полное дублированние)] " />

Аплоадер: Админ, дата: 24-01-2012, 17:11, торрент скачан: 359 раз

Понравилась раздача? Посмотрите эти:
  • Eminem / Rap God [2013, Rap, HDRip]
  • Brit Smith feat. Will.i.am / Provocative (Explicit) [2013, Hip-Hop, HDRip]
  • Война миров Z / World War Z (Марк Форстер, ужасы, фантастика, боевик, трилл ...
  • Вероника решает умереть / Veronika Decides to Die (Эмили Янг, Драма 2009) [ ...
  • Сумасшедшая езда / Drive Angry (Патрик Люссье, фэнтези, боевик, триллер, кр ...
  • Отражение Разбитое зеркало / The Brоken (Шон Эллис , ужасы, фэнтези, трилл ...
  • Дети шпионов 4D / Spy Kids: All the Time in the World in 4D (Роберт Родриге ...
  • Впритык / Due Date (Тодд Филлипс, драма, комедия, 2010) [HDRip-AVC, Професс ...
  • Похороните меня заживо / Get Low (Аарон Шнайдер / Aaron Schneider,драма, де ...
  • Путешествия Гулливера / Gullivers Travels (Роб Леттерман / Rob Letterman, ф ...
  • Город воров / The Town [Театральная версия / Theatrical Cut] (Бен Аффлек / ...
  • Паранормальное явление 2 / Paranormal Activity 2 [Theatrical Сut / Театраль ...
  • Хранитель времени / Hugo (Мартин Скорсезе, Драма, 2011) [BDRip-AVC, Професс ...
  • Хранитель времени / Hugo (Мартин Скорсезе, Драма, 2011) [BDRip-AVC, Професс ...
  • Команда «А» / The A-Team (Джо Карнахан, боевик, триллер, комедия, приключен ...
  • Артур и война двух миров / Arthur et la guerre des deux mondes (Люк Бессон ...
  • Mylene Farmer / Du Temps [2011, Pop, HDTVRip]
  • Артур и минипуты / Arthur and the Minimoys (Люк Бессон / фэнтези, приключен ...
  • Артур и война двух миров / Arthur et la guerre des deux mondes (Люк Бессон ...
  • Артур и война двух миров / Arthur et la guerre des deux mondes (Люк Бессон ...
  • Артур и война двух миров / Arthur et la guerre des deux mondes(Люк Бессон, ...
  • Артур и война двух миров / Arthur et la guerre des deux mondes (Люк Бессон, ...
  • Артур и война двух миров / Arthur et la guerre des deux mondes (Люк Бессон, ...
  • Хостел 3 / Hostel: Part III (Скотт Спигел / Scott Spiegel, ужасы, триллер, ...
  • Артур и минипуты / Arthur et les Minimoys / Arthur and the Minimoys (Люк Бе ...
  • Информация
    Посетители, находящиеся в группе Гости, не могут оставлять комментарии к данной публикации.