вход на сайт

Имя пользователя :
Пароль :

Восстановление пароля Регистрация
Спиди Гонщик / Speed Racer (Энди Вачовски / Andy Wachowski, Лана Вачовски / Lana Wachowski, боевик, семейный, спорт, 2008) [BDRip-AVC, Профессиональный (дублированный) + Оригинал]
Рейтинг:
(голосов: 1)



[img]{THEME}/images/logopost.png[/img]



Спиди Гонщик / Speed Racer
«Газуй!»

Год выпуска: 2008
Страна: США Германия Австралия
Производство: Warner Bros. Pictures
Жанр: боевик, семейный, спорт

Режиссёр: Энди Вачовски / Andy Wachowski, Лана Вачовски / Lana Wachowski
В ролях: Эмиль Хирш, Николас Элиа, Сьюзен Сарандон, Мелисса Холройд, Эриель Винтер, Скотт Портер, Джан Джанзиано, Питер Фернандез, Харви Фридман, Садао Уеда

Перевод: Профессиональный (дублированный) [лицензия] + Оригинал
Субтитры: Русские, английскиe

Описание: Юный автогонщик Спиди стремится обрести славу, как на самом треке, так и за его пределами, на своем подобном молнии автомобиле «Мак-5».



Качество: BDRip-AVC [Исх. BDRemux 1080p]
Продолжительность: 02:15:00

Формат: MKV
Видео кодек: x264
Аудио кодек: AC3 Dolby Digital
Видео: 944x400 (2,35:1), 23,976 fps, x264 ~2313 kbps avg, 0.255 bit/pixel
Аудио 1: 48 kHz, AC3 Dolby Digital, 3/2 (L,C,R,l,r) + LFE ch, ~384.00 kbps avg - Профессиональный (дублированный) [лицензия]
Аудио 2: 48 kHz, AC3 Dolby Digital, 3/2 (L,C,R,l,r) + LFE ch, ~384.00 kbps avg - Оригинал

Дата премьеры (мир): 28 апреля 2008
Дата премьеры (РФ): 29 мая 2008, «Каро-Премьер»

MediaInfo ▼Общее
Полное имя : I:OtherSpeed.Racer.2008.Dub.BDRip.x264.[Vaippp].mkv
Формат : Matroska
Размер файла : 2,91 Гбайт
Продолжительность : 2 ч. 15 м.
Общий поток : 3084 Кбит/сек
Название фильма : Спиди Гонщик / Speed Racer (2008) Release by Vaippp
Дата кодирования : UTC 2011-01-18 14:05:22
Программа кодирования : mkvmerge v4.4.0 (Die Wiederkehr) сборка от Oct 31 2010 21:52:48
Библиотека кодирования : libebml v1.0.0 + libmatroska v1.0.0
Видео
Идентификатор : 1
Формат : AVC
Формат/Информация : Advanced Video Codec
Профиль формата : [email protected]
Параметр CABAC формата : Да
Параметр ReFrames формата : 10 кадры
Идентификатор кодека : V_MPEG4/ISO/AVC
Продолжительность : 2 ч. 15 м.
Битрейт : 2313 Кбит/сек
Ширина : 944 пикс.
Высота : 400 пикс.
Соотношение сторон : 2,35:1
Частота кадров : 23,976 кадр/сек
Цветовое пространство : YUV
Подвыборка цветности : 4:2:0
Битовая глубина : 8 бит
Тип развёртки : Прогрессивная
Бит/(Пиксели*Кадры) : 0.255
Размер потока : 2,13 Гбайт (73%)
Заголовок : BDRip by Vaippp
Библиотека кодирования : x264 core 98 r1649 20cbe10
Настройки программы : cabac=1 / ref=10 / deblock=1:-2:-1 / analyse=0x3:0x113 / me=umh / subme=9 / psy=1 / psy_rd=1.00:0.10 / mixed_ref=1 / me_range=24 / chroma_me=1 / trellis=1 / 8x8dct=1 / cqm=0 / deadzone=21,11 / fast_pskip=0 / chroma_qp_offset=-3 / threads=4 / sliced_threads=0 / nr=0 / decimate=1 / interlaced=0 / constrained_intra=0 / bframes=9 / b_pyramid=2 / b_adapt=2 / b_bias=0 / direct=3 / weightb=1 / weightp=2 / keyint=250 / keyint_min=25 / scenecut=40 / intra_refresh=0 / rc_lookahead=60 / rc=2pass / mbtree=1 / bitrate=2313 / ratetol=1.0 / qcomp=0.70 / qpmin=10 / qpmax=51 / qpstep=4 / cplxblur=20.0 / qblur=0.5 / ip_ratio=1.40 / aq=1:1.00
Язык : English
Аудио #1
Идентификатор : 2
Формат : AC-3
Формат/Информация : Audio Coding 3
Расширение режима : CM (complete main)
Идентификатор кодека : A_AC3
Продолжительность : 2 ч. 15 м.
Вид битрейта : Постоянный
Битрейт : 384 Кбит/сек
Канал(ы) : 6 канала(ов)
Расположение каналов : Front: L C R, Side: L R, LFE
Частота : 48,0 КГц
Битовая глубина : 16 бит
Метод сжатия : С потерями
Размер потока : 371 Мбайт (12%)
Заголовок : Дубляж
Язык : Russian
Аудио #2
Идентификатор : 3
Формат : AC-3
Формат/Информация : Audio Coding 3
Расширение режима : CM (complete main)
Идентификатор кодека : A_AC3
Продолжительность : 2 ч. 15 м.
Вид битрейта : Постоянный
Битрейт : 384 Кбит/сек
Канал(ы) : 6 канала(ов)
Расположение каналов : Front: L C R, Side: L R, LFE
Частота : 48,0 КГц
Битовая глубина : 16 бит
Метод сжатия : С потерями
Размер потока : 371 Мбайт (12%)
Заголовок : Оригинал
Язык : English
Текст #1
Идентификатор : 4
Формат : UTF-8
Идентификатор кодека : S_TEXT/UTF8
Идентификатор кодека/Информация
6ffbecd3f114939ef9630146ee9507b9af22cdf0Спиди Гонщик / Speed Racer (Энди Вачовски / Andy Wachowski, Лана Вачовски / Lana Wachowski, боевик, семейный, спорт, 2008) [BDRip-AVC, Профессиональный (дублированный) + Оригинал] Спиди Гонщик / Speed Racer (Энди Вачовски / Andy Wachowski, Лана Вачовски / Lana Wachowski, боевик, семейный, спорт, 2008) [BDRip-AVC, Профессиональный (дублированный) + Оригинал] " />

Аплоадер: Админ, дата: 23-01-2012, 15:23, торрент скачан: 359 раз

Понравилась раздача? Посмотрите эти:
  • Спиди Гонщик / Speed Racer (Энди Вачовски,Ларри Вачовски, Боевик, семейный ...
  • Матрица: Трилогия / The Matrix: Trilogy (Энди Вачовски, Лана Вачовски, Фант ...
  • Начинающие / Beginners (Майк Миллс / Mike Mills, драма, мелодрама, комедия, ...
  • Главное - не бояться! / A Little Bit of Heaven (Николь Кэссел / Nicole Kass ...
  • Драйв / Drive (Николас Виндинг Рёфн, боевик, триллер, драма, криминал, 2011 ...
  • Дьявол / Devil (Джон Эрик Даудл / John Erick Dowdle,ужасы, триллер, детекти ...
  • Матрица / The Matrix (Энди Вачовски / Andy Wachowski, Лана Вачовски / Lana ...
  • Матрица / The Matrix (Энди Вачовски / Andy Wachowski, Лана Вачовски / Lana ...
  • Руины / The Ruins (Картер Смит, ужасы, триллер, 2008) [BDRip-AVC, Профессио ...
  • Проект X: Дорвались / Project X (Нима Нуризаде, комедия, 2012) [BDRip - AVC ...
  • Облачный атлас / Cloud Atlas (Лана Вачовски, Том Тыквер, Энди Вачовски, фан ...
  • Облачный атлас / Cloud Atlas (Лана Вачовски, Том Тыквер, Энди Вачовски, фан ...
  • Матрица: Трилогия / Matrixs Trilogy (Энди Вачовски, Лана Вачовски, фантасти ...
  • Невероятный Халк / The Incredible Hulk (Луи Летерье, фантастика, боевик, тр ...
  • Матрица / The Matrix (Энди Вачовски, Лана Вачовски, фантастика, боевик, пр ...
  • Шматрица (Энди Вачовски /Andy Wachowski/, Ларри Вачовски /Larry Wachowski/, ...
  • Спиди Гонщик / Speed Racer (Энди Вачовски, Фантастика,Семейный, Боевик, 200 ...
  • Спиди Гонщик / Speed Racer (Энди Вачовски, Фантастика,Семейный, Боевик, 200 ...
  • Матрица / The Matrix (Энди Вачовски / Andy Wachowski, Лана Вачовски / Lana ...
  • [Трейлер] Облачный атлас / Cloud Atlas (Лана Вачовски, Том Тыквер, Энди Вач ...
  • Информация
    Посетители, находящиеся в группе Гости, не могут оставлять комментарии к данной публикации.