вход на сайт

Имя пользователя :
Пароль :

Восстановление пароля Регистрация
Бессмертная тетушка / Nesmrtelna teta (Зденек Зеленка, комедия, 1993) [DVDRip, Профессиональный (многоголосый, закадровый)]
Рейтинг:
(голосов: 1)



[img]{THEME}/images/logopost.png[/img]



Бессмертная тетушка / Nesmrtelna teta

Год выпуска: 1993
Страна: Чехия
Производство: Bonton, a. s., Ceska Televize
Жанр: комедия

Режиссёр: Зденек Зеленка
В ролях: Иржина Богдалова, Филип Блажек, Барбора Бобулова, Яромир Ганзлик, Властимил Бродский, Эдуард Цупак, Станислав Фишер, Ладислав Герендаш, Alena Karesova, Ярослав Кепка

Перевод: Профессиональный (многоголосый, закадровый)
Субтитры: Отсутствуют

Описание:
Поспорили однажды Разум и Удача о том, кто из них более важен для человечества. Рассудить спор взялась третья сторона- тетушка Зависть…


Дополнительно:
MediaInfo ▼Text
Общее
Полное имя :L:3.РаздачаБессмертная тетушкаNesmrtelna teta.avi
Формат :AVI
Размер :1.38 GiB
Продолжительность :01:37:51.040
Общий поток :2 017 Kbps
Программа кодирования :Nandub v1.0rc2
Библиотека кодирования :Nandub build 1852/release

Видео
Идентификатор :0
Формат :MPEG-4 Visual
Профиль формата :Advanced [email protected]
Параметр BVOP формата :2
Параметр Qpel формата :No
Параметр GMC формата :0
Параметр Matrix формата :Default (MPEG)
Идентификатор кодека :XVID
Продолжительность :1h 37mn 51s 40ms
Битрейт :1 815 Kbps
Ширина :704 pixels
Высота :448 pixels
Соотношение сторон :1.571
Частота кадров :25.000 fps
Глубина цвета :8 bits
Подвыборка цветности :4:2:0
Цветовое пространство :YUV
Тип развертки :Progressive
Бит/(Пиксели*Кадры) :0.230
Размер потока :1.24 GiB (90%)
Библиотека кодирования :XviD0050

Аудио #1
Идентификатор :1
Формат :AC-3
Формат/Информация :Audio Coding 3
Идентификатор кодека :2000
Продолжительность :01:37:50.926
Вид битрейта :Constant
Битрейт :192 Kbps
Канал(ы) :2 channels
Расположение каналов :Front: L R
Частота :48.0 KHz
Битовая глубина :16 bits
Метод сжатия :Lossy
Размер потока :134 MiB (10%)Тех. данные:
Качество:DVDRip
10c79fcee628483a0b0bf62048dc63aaa2ec0cecБессмертная тетушка / Nesmrtelna teta (Зденек Зеленка, комедия, 1993) [DVDRip, Профессиональный (многоголосый, закадровый)] Бессмертная тетушка / Nesmrtelna teta (Зденек Зеленка, комедия, 1993) [DVDRip, Профессиональный (многоголосый, закадровый)] " />

Аплоадер: Админ, дата: 21-11-2012, 20:31, торрент скачан: 359 раз

Понравилась раздача? Посмотрите эти:
  • Заверните мне норку / Make Mine Mink (Роберт Эшер, комедия, 1960) [DVDRip, ...
  • Ботинок по имени Мелихар / Bota Jmenem Melichar (Зденек Трошка, семейный, 1 ...
  • Обнаженная / Naked (Майк Ли, драма, комедия, 1993) [DVDRip, (2х)Профессиона ...
  • Деннис-мучитель / Dennis the Menace (Ник Касл, комедия, семейный, 1993) [DV ...
  • Молчание - золото / Le silence est dor (Рене Клер, мелодрама, комедия, 1947 ...
  • Час свиньи / The Hour of the Pig (Лесли Мегахи, Драма, история, криминал, д ...
  • Сердце и души / Heart and Souls (Рон Андервуд, фэнтези, драма, мелодрама, к ...
  • Вальсирующие / Les valseuses (Бертран Блие, драма, комедия, криминал, 1966) ...
  • Афера / The Sting (Джордж Рой Хилл, комедия, криминал, 1973) [DVDRip, Профе ...
  • Второй трагический Фантоцци / Il secondo tragico Fantozzi (Лучано Сальче, к ...
  • Жить, чтобы жить / Vivre Pour Vivre (Клод Лелуш, драма, 1967) [DVDRip, Проф ...
  • Консьерж / For Love or Money (Барри Зонненфельд, Мелодрама, комедия, 1993) ...
  • Мы поедем в Дювиль / Nous irons a Deauville (Френсис Риго, комедия, 1962) [ ...
  • Будь красивой и молчи / Sois belle et tais-toi (Марк Аллегре, комедия, 1958 ...
  • День добрый, улыбка! / Bonjour sourire! (Клод Соте, комедия, 1956) [DVDRip, ...
  • Мой дядюшка / Mon oncle (Жак Тати, комедия, 1958) [DVDRip, Профессиональный ...
  • Экспериментатор / Slunce, seno, jahody (Зденек Трошка, Комедия, 1984) [DVDR ...
  • Тайна Карпатского замка / Tajemstvi hradu v Karpatech (Ольдржих Липский, Ко ...
  • На хуторе у леса / Na samote u lesa (Иржи Менцель, драма, комедия, семейный ...
  • Повышение / The Promotion (Стив Конрад, Комедия, 2008) [DVDRip, Профессиона ...
  • Орел или Решка / Pari e dispari (Серджио Корбуччи, комедия, криминал, 1978) ...
  • Уик-энд / Week End (Жан-Люк Годар, драма, комедия, 1967) [DVDRip, Профессио ...
  • Властелин джунглей / Ghatothkach (Сингитам Шриниваса Рао, мультфильм, 2008) ...
  • Школа воров 2 / Scuola di ladri - parte seconda (Нери Паренти, Комедия, 198 ...
  • Четыре свадьбы и одни похороны / Four Weddings and a Funeral (Майк Ньюэлл, ...
  • Информация
    Посетители, находящиеся в группе Гости, не могут оставлять комментарии к данной публикации.