вход на сайт

Имя пользователя :
Пароль :

Восстановление пароля Регистрация
Зов дикой природы / Call of the Wild Ричард Габай, приключения, драма, семейный,2009) HDRip,Профессиональный (многоголосый)]
Рейтинг:
(голосов: 1)



[img]{THEME}/images/logopost.png[/img]



Зов Предков/Call of the Wild

Год выпуска: 2009
Страна: США
Производство: Check Entertainment,21st Century 3D
Жанр: приключения, драма, семейный


Режиссёр:Ричард Габай
В ролях:Кристофер Ллойд, Эриел Гэйди, Тимоти Боттомс, Вероника Картрайт, Кристофер Демпси, Джойс Девитт, Девон Грайе, Девон Лотт, Камерон Нокс, Расселл Снайдер

Перевод: Профессиональный (многоголосый)
Субтитры: Отсутствуют

Описание: Фильм, снятый по мотивам произведения Джека Лондона. Родители десятилетней девочки Райан уезжают в Европу, а свою дочь отправляют к дедушке в Монтану, на время своего отсутствия. Штат Монтана кажется избалованной городской девочке страшной глушью, а местные жители кажутся ей весьма странными людьми. Ей особенно непонятно их увлечение собачьими гонками. Но в один прекрасный день к дому деда прибилась раненая дикая собака, полуволк-полупес, и Райан начала ухаживать за животным…



Качество: HDRip
Продолжительность:01:27:15

Формат: AVI
Видео кодек:XviD
Аудио кодек:AС3
Видео: 720x400 (1.80:1), 23.976 fps, XviD build 63 ~2041 kbps avg, 0.29 bit/pixel
Аудио: 48 kHz, AC3 Dolby Digital, 2/0 (L,R) ch, ~192.00 kbps avg
"MediaInfo" ▼Видео
Идентификатор : 0
Формат : MPEG-4 Visual
Профиль формата : Advanced [email protected]
Параметр BVOP формата : 2
Параметр QPel формата : Нет
Параметр GMC формата : Без точки перехода
Параметр матрицы формата : Default (H.263)
Идентификатор кодека : XVID
Идентификатор кодека/Подсказка : XviD
Продолжительность : 1 ч. 27 м.
Битрейт : 2041 Кбит/сек
Ширина : 720 пикселей
Высота : 400 пикселей
Соотношение сторон : 16:9
Частота кадров : 23,976 кадра/сек
Цветовое пространство : YUV
Субдискретизация насыщенности : 4:2:0
Битовая глубина : 8 бит
Тип развёртки : Прогрессивная
Метод сжатия : С потерями
Бит/(Пиксели*Кадры) : 0.296
Размер потока : 1,24 Гбайт (91%)
Библиотека кодирования : XviD 63

Аудио
Идентификатор : 1
Формат : AC-3
Формат/Информация : Audio Coding 3
Профиль формата : Dolby Digital
Расширение режима : CM (complete main)
Идентификатор кодека : 2000
Продолжительность : 1 ч. 27 м.
Вид битрейта : Постоянный
Битрейт : 192 Кбит/сек
Каналы : 2 канала
Расположение каналов : Front: L R
Частота : 48,0 КГц
Битовая глубина : 16 бит
Метод сжатия : С потерями
Размер потока : 120 Мбайт (9%)
Выравнивание : Разделение по промежуткам
Продолжительность промежутка : 42 мс. (1,00 видеокадр)
Время предзагрузки промежутка : 500 мс.
Язык : 5 / @5



50e670a661cdb26d5b6914cd30fc45e22ba8d6fbЗов дикой природы / Call of the Wild Ричард Габай, приключения, драма, семейный,2009) HDRip,Профессиональный (многоголосый)] Зов дикой природы / Call of the Wild Ричард Габай, приключения, драма, семейный,2009) HDRip,Профессиональный (многоголосый)] " />

Аплоадер: Админ, дата: 2-10-2011, 22:05, торрент скачан: 359 раз

Понравилась раздача? Посмотрите эти:
  • Бойфренд из будущего / About Time (Ричард Кёртис, Фантастика, драма, комеди ...
  • Одноклассники 2 / Grown Ups 2 (Деннис Дуган, Комедия, 2013) [BDRip, Професс ...
  • Миллион для чайников / The Brass Teapot (Рамаа Мосли, Фэнтези, триллер, ком ...
  • Астрал на улице Арлетт / 388 Arletta Avenue (Рэндолл Коул, Триллер, 2011) [ ...
  • Последний звонок / Last Call (Грег Гарт, Комедия, 2012) [SATRip, Дублирован ...
  • Глушь / Resurrection County (Матт Зеттел, Ужасы,триллер, 2008) [DVDRip, Про ...
  • Двенадцать бедствий на Рождество / The 12 Disasters of Christmas (Стивен Р. ...
  • Жил-был тигр / Ek Tha Tiger (Кабир Кхан, боевик, триллер , 2012) [ HDRip, ...
  • Легенда о МорДу / The Legend of MorDu (Брайан Ларсен, Короткометражный, ска ...
  • [3D] Зов предков / Call of the Wild (Ричард Габай, драма, приключения, семе ...
  • Отбой / Taps (Харольд Беккер, Драма, 1981) [DVDRip, Профессиональный (много ...
  • Путешествие на дно моря / Voyage to the Bottom of the Sea (Ирвин Аллен / I ...
  • Кажется, я люблю свою жену / I Think I Love My Wife (Крис Рок, Драма, мелод ...
  • Бог любви / God of Love (Люк Мэзени, Короткометражка, фэнтези, комедия, мел ...
  • К-9: Рождественские приключения / K9 Adventures: A Christmas Tale (Бен Гурл ...
  • Кейси Джонс / Casey Jones (Иларион Бэнкс, Короткометражка, фэнтези, боевик, ...
  • Покорить высоту / Take It to the Limit (Сэм Кит / Sam Kieth, семейный, 2000 ...
  • Боец из трущоб / Gutter King (Кейт Алан Моррис / Keith Alan Morris, боевик, ...
  • Зов дикой природы / Call of the Wild (Ричард Габай, приключения, драма, сем ...
  • Нет мужчин - нет проблем / Without Men (Габриела Тальявини, Комедия, 2011) ...
  • Гениальный папа / Father of Invention (Трент Купер, Драма, комедия, 2010) [ ...
  • Жизнь за гранью / After.Life (Агнешка Войтович-Восло, Ужасы, триллер, драм ...
  • Глаз шторма / The Eye of the Storm (Фред Скеписи, Драма, 2011) [HDRip, Проф ...
  • Человек из банки (Иван Кульнев, Комедия, 2012) [DVDRip, Не требуется]
  • Сдохни, Джон Такер / John Tucker Must Die (Бетти Томас, мелодрама, комедия, ...
  • Информация
    Посетители, находящиеся в группе Гости, не могут оставлять комментарии к данной публикации.