вход на сайт

Имя пользователя :
Пароль :

Восстановление пароля Регистрация
Маленький Николя / Le Petit Nicolas ( Лорен Тирар,комедия, семейный,2009 ) [HDRip,Профессиональный (многоголосый закадровый)]
Рейтинг:
(голосов: 1)



[img]{THEME}/images/logopost.png[/img]



Маленький Николя / Le petit Nicolas

Год выпуска: 2009
Страна: Франция,Бельгия
Производство: Wild Bunch
Жанр: Комедия, семейный

Режиссёр: Лоран Тирар
В ролях: Максим Годар, Валери Лемерсье, Кад Мерад, Сандрин Киберлейн, Франсуа-Хавьер Демасон, Мишель Дюшоссуа, Даниэль Прево, Мишель Галабрю, Анемон, Франсуа Дамиенс

Перевод: Профессиональный (многоголосый закадровый)

Описание: На первый взгляд, Николя такой же ребёнок, как и все. Однако, рассказ о его приключениях не перестаёт захватывать огромным количеством проделок, которые он постоянно вытворяет со своей компанией! Николя и его компания сеют всюду на своём пути небывалый беспорядок и веселые раздоры.


IMDB: 7.00 (1 770)
КиноПоиск:7.628 (343)

Сэмпл

Качество: HDRip
Продолжительность: 01:31:32 час.

Формат: AVI
Видео кодек: XviD
Аудио кодек: MP3
Видео:Xvid 640x352 23.98fps 933Kbps
Аудио:MPEG Audio Layer 3 48000Hz stereo 128Kbps
"Технические данные" ▼Z:malenk_nikolya.avi
General
Complete name : Z:malenk_nikolya.avi
Format : AVI
Format/Info : Audio Video Interleave
File size : 699 MiB
Duration : 1h 31mn
Overall bit rate : 1 070 Kbps
Writing application : VirtualDubMod 1.5.10.2 (build 2542/release)
Writing library : VirtualDubMod build 2542/release
Video #0
ID : 0
Format : MPEG-4 Visual
Format profile : [email protected]
Format settings, BVOP : Yes
Format settings, QPel : No
Format settings, GMC : No warppoints
Format settings, Matrix : Custom
Codec ID : XVID
Codec ID/Hint : XviD
Duration : 1h 31mn
Bit rate : 933 Kbps
Width : 640 pixels
Height : 352 pixels
Display aspect ratio : 16:9
Frame rate : 23.976 fps
Resolution : 24 bits
Colorimetry : 4:2:0
Scan type : Progressive
Bits/(Pixel*Frame) : 0.173
Stream size : 609 MiB (87%)
Writing library : XviD 1.2.1 (UTC 2008-12-04)
Audio #1
ID : 1
Format : MPEG Audio
Format version : Version 1
Format profile : Layer 3
Codec ID : 55
Codec ID/Hint : MP3
Duration : 1h 31mn
Bit rate mode : Constant
Bit rate : 128 Kbps
Channel(s) : 2 channels
Sampling rate : 48.0 KHz
Resolution : 16 bits
Stream size : 83.5 MiB (12%)
Alignment : Aligned on interleaves
Interleave, duration : 42 ms (1.00 video frame)
Interleave, preload duration : 504 ms



746218060a9cd8dd6df1efbed79d1f033308d3d5Маленький Николя / Le Petit Nicolas ( Лорен Тирар,комедия, семейный,2009 ) [HDRip,Профессиональный (многоголосый закадровый)] Маленький Николя / Le Petit Nicolas ( Лорен Тирар,комедия, семейный,2009 ) [HDRip,Профессиональный (многоголосый закадровый)] " />

Аплоадер: Админ, дата: 11-12-2010, 13:48, торрент скачан: 359 раз

Понравилась раздача? Посмотрите эти:
  • Непристойная комедия / InAPPropriate Comedy (Винс Оффер, комедия, 2013) [DV ...
  • Погнали! / Getaway (Кортни Соломон, Боевик,Криминал, 2013) [HDRip, Професси ...
  • Верное дельце / Une pure affaire (Александр Коффре, Боевик, Комедия, Кримин ...
  • Мэрайа Мунди и шкатулка Мидаса / The Adventurer: The Curse of the Midas Box ...
  • Любовь на кончиках пальцев / Populaire (Режис Ройнсар, Мелодрама, комедия, ...
  • Любовь на кончиках пальцев / Populaire (Режис Ройнсар, Мелодрама, комедия, ...
  • Любовь на кончиках пальцев / Populaire (Режис Ройнсар, Мелодрама, комедия, ...
  • Магазин самоубийств / Le magasin des suicides (Патрис Леконт, Мультфильм, м ...
  • Астерикс и Обеликс в Британии / Asterix et Obelix: Au service de Sa Majeste ...
  • Маленький Николя / Le Petit Nicolas ( Лорен Тирар,комедия, семейный,2009 ) ...
  • Яркая звезда / Bright Star (Джейн Кэмпион / Jane Campion) [2009, Биографиче ...
  • Неделя в NBA с В.Гомельским / НТВ+ [28.06.2011, SD, XviD, RU, SAT]
  • Вскрытие инопланетянина/Alien Autopsy (Джонни Кэмпбелл, Комедия, фантастика ...
  • Задание / The Task (Алекс Оруэлл, Ужасы, 2010) [HDRip, Профессиональный (мн ...
  • Мистер Ганджубас / Mr. Nice (Бернард Роуз, Драма, комедия, 2010)[HDRip, Про ...
  • Романтики / The Romantics (Галт Нидерхоффер, Драма, мелодрама, комедия, 201 ...
  • Полусвет / Half Light (Крэйг Розенберг, Ужасы, триллер, драма, детектив, 20 ...
  • Замёрзший мир / 2012: Ice Age (Трэвис Форт, фантастика, боевик, 2011) [HDRi ...
  • Искажение / Skew (Сейв Челенз, ужасы, триллер, 2011) [HDRip, Профессиональн ...
  • Из джунглей в джунгли / Jungle 2 Jungle (Джон Пасквин, комедия, приключения ...
  • Информация
    Посетители, находящиеся в группе Гости, не могут оставлять комментарии к данной публикации.