вход на сайт

Имя пользователя :
Пароль :

Восстановление пароля Регистрация
Прощай, моя королева / Les adieux à la reine (Бенуа Жако, драма, история, 2012) [BDRip, Профессиональный (многоголосый закадровый) R5]
Рейтинг:
(голосов: 1)



[img]{THEME}/images/logopost.png[/img]



•Прощай, моя королева / Les adieux à la reine •
♥ Год выпуска: 2012
♥ Страна: Франция, Испания
♥ Производство: Angoa, G.M.T. Productions, Instituto de la Cinematografía y de las Artes Audiovisuales (ICAA)
♥ Жанр: драма, история

♥ Режиссёр: Бенуа Жако
♥ В ролях: Дайан Крюгер, Леа Сейду, Виржини Ледуайен, Ксавье Бовуа, Ноэми Львовски, Мишель Робен, Жюли-Мари Парментье, Лолита Шамма, Владимир Консиньи, Доминик Реймон

♥ Перевод: Профессиональный (многоголосый закадровый) R5
♥ Субтитры: Отсутствуют

♥ Описание: 14 июля 1789 года толпы восставших взяли Бастилию, но блестящий Версаль еще пытался отстоять свое королевское великолепие на пути урагана…

Экранизация одноименного романа Шанталь Тома, написанного в форме воспоминаний Сидони Лаборде — придворной чтицы Марии-Антуанетты о 14, 15 и 16 июля 1789 года. О тех днях, когда была разрушена Бастилия и учреждена Национальная гвардия, когда началась кровавая революция и залы роскошного дворца опустели, когда свита и слуги оставили свою Королеву. Спустя 21 год, уже в Вене Агата Сидони Лаборде оглядывается назад и вспоминает


MediaInfo ▼TextGeneral
Complete name : Proschay.moya.koroleva.2012.BDRip.XviD.745MB.avi
Format : AVI
Format/Info : Audio Video Interleave
File size : 746 MiB
Duration : 1h 35mn
Overall bit rate : 1 093 Kbps
Writing application : VirtualDubMod 1.5.10.3 | www.virtualdub-fr.org || (build 2550/release)
Writing library : VirtualDubMod build 2550/release

Video
ID : 0
Format : MPEG-4 Visual
Format profile : Advanced [email protected]
Format settings, BVOP : 2
Format settings, QPel : No
Format settings, GMC : No warppoints
Format settings, Matrix : Custom
Codec ID : XVID
Codec ID/Hint : XviD
Duration : 1h 35mn
Bit rate : 956 Kbps
Width : 672 pixels
Height : 288 pixels
Display aspect ratio : 2.35:1
Frame rate : 25.000 fps
Color space : YUV
Chroma subsampling : 4:2:0
Bit depth : 8 bits
Scan type : Progressive
Compression mode : Lossy
Bits/(Pixel*Frame) : 0.198
Stream size : 652 MiB (87%)
Writing library : XviD 65

Audio
ID : 1
Format : MPEG Audio
Format version : Version 1
Format profile : Layer 3
Mode : Joint stereo
Mode extension : MS Stereo
Codec ID : 55
Codec ID/Hint : MP3
Duration : 1h 35mn
Bit rate mode : Constant
Bit rate : 128 Kbps
Channel(s) : 2 channels
Sampling rate : 48.0 KHz
Compression mode : Lossy
Stream size : 87.3 MiB (12%)
Alignment : Aligned on interleaves
Interleave, duration : 40 ms (1.00 video frame)
Interleave, preload duration : 504 ms
Writing library : LAME3.99r
Encoding settings : -m j -V 4 -q 0 -lowpass 17 -b 128
♥ Качество: BDRip
♥ Продолжительность: 01:35:23

♥ Формат: AVI
♥ Видео кодек: XviD
♥ Аудио кодек: MP3
♥ Видео: 672x288 (2.35:1), 25 fps, XviD build 50 ~956 kbps avg, 0.198 bit/pixel
♥ Аудио1: 48 kHz, MPEG Layer 3, 2 ch, ~128.00 kbps avg


♥ Дата премьеры (мир): 9 февраля 2012
♥ Дата премьеры (РФ): 16 августа 2012, «Top Film Distribution»


Релиз Группы "Virtus"

Стол заказов / Вступление в РГ / Благодарности, критика и другое


ad8cfe33f2afc037e122f3a83d133558c30c8a90Прощай, моя королева / Les adieux à la reine (Бенуа Жако, драма, история, 2012) [BDRip, Профессиональный (многоголосый закадровый) R5] Прощай, моя королева / Les adieux à la reine (Бенуа Жако, драма, история, 2012) [BDRip, Профессиональный (многоголосый закадровый) R5] " />

Аплоадер: Админ, дата: 28-12-2012, 21:06, торрент скачан: 359 раз

Понравилась раздача? Посмотрите эти:
  • Погнали! / Getaway (Кортни Соломон, Боевик,Криминал, 2013) [HDRip, Професси ...
  • Решала (Роман Асхаев, Драма,Криминал, 2012) [WEB-DLRip, Не требуется]
  • МЫ. Верим в любовь / W.E. (Мадонна, Драма, мелодрама, история, 2011) [BDRip ...
  • Цель Номер Один / Zero Dark Thirty (Кэтрин Бигелоу, боевик, триллер, драма, ...
  • В хлам / Smashed (Джеймс Понсольдт, Драма, комедия, 2012) [HDRip, Профессио ...
  • Любовь на кончиках пальцев / Populaire (Режис Ройнсар, Мелодрама, комедия, ...
  • Магазин самоубийств / Le magasin des suicides (Патрис Леконт, Мультфильм, м ...
  • Лучший стрелок / Top Gun (Тони Скотт, боевик, драма, мелодрама, 1986) [BDRi ...
  • Суперстар / Superstar (Ксавье Джианноли, Драма, комедия, 2012) [HDRip, Проф ...
  • Экипаж / Flight (Роберт Земекис, Драма, 2012) [BDRip, Профессиональный (пол ...
  • Мой парень – псих / Silver Linings Playbook (Дэвид О. Расселл, Драма, мелод ...
  • Чемпионат Европы 2012 / Группа D / 1-й тур / Украина - Швеция / Спорт 1 [11 ...
  • Прощай, моя королева / Les adieux à la reine (Бенуа Жако, драма, история, 2 ...
  • Заговорщица / The Conspirator (Роберт Редфорд, драма, криминал, история, 20 ...
  • Последняя сказка Риты (Рената Литвинова, Фентези, драма, детектив, 2012) [D ...
  • Папаша / Starbuck (Кен Скотт, Драма, комедия, 2011) [BDRip, Профессиональны ...
  • Страх / Fear (Джеймс Фоули, ужасы, триллер, драма, 1996) [BDRip, Дубляж]
  • Неприкасаемые / Intouchables (Оливье Накаш, Эрик Толедано, Драма, 2011) [BD ...
  • Романтики / The Romantics (Галт Нидерхоффер, Драма, мелодрама, комедия, 201 ...
  • Чемпионат Европы 2012 / Группа B / 1-й тур / Германия - Португалия / Спорт ...
  • Мгновение любви / Here (Браден Кинг, Драма, мелодрама, приключения, 2011) [ ...
  • Прощай, моя королева / Les adieux a la reine (Бенуа Жако, драма, история, 2 ...
  • Прощай, моя королева / Les adieux a la reine (Бенуа Жако, драма, история, 2 ...
  • Искажение / Skew (Сейв Челенз, ужасы, триллер, 2011) [HDRip, Профессиональн ...
  • Крузо / Crusoe (Калеб Дешанель, Драма, 1988) [HDTVRip, Профессиональный (дв ...
  • Информация
    Посетители, находящиеся в группе Гости, не могут оставлять комментарии к данной публикации.