вход на сайт

Имя пользователя :
Пароль :

Восстановление пароля Регистрация
Заговорщица / The Conspirator (Роберт Редфорд, драма, криминал, история, 2010) [HDRip, Профессиональный (многоголосый закадровый)]
Рейтинг:
(голосов: 1)



[img]{THEME}/images/logopost.png[/img]



• Заговорщица / The Conspirator •
♥ Год выпуска: 2010
♥ Страна: США
♥ Производство: American Film Company, The
♥ Жанр: драма, криминал, история

♥ Режиссёр: Роберт Редфорд
♥ В ролях: Джеймс МакЭвой, Робин Райт, Кевин Клайн, Ивэн Рэйчел Вуд, Том Уилкинсон, Джастин Лонг, Дэнни Хьюстон, Джеймс Бэдж Дэйл, Колм Мини, Алексис Бледел, Джонни Симмонс, Тоби Кеббелл, Джонатан Грофф, Стивен Рут, Джон Каллам, Норман Ридус, Джон Майкл Уэтерли, Маркус Хестер, Кристофер Бауэр, Джим Тру-Фрост, Ши Уигхэм, Дэвид Эндрюс, Джеймс Кирк Спаркс, Джон Каррен, Роберт С. Тревилер, Брайан Ф. Даркин, Каллен Мосс, Джейсон Хэтфилд, Кэтлин Хоган, Дин Мамфорд, Джереми Кэрролл

♥ Перевод: Профессиональный (многоголосый закадровый)
♥ Субтитры: Отсутствуют

♥ Описание: Мэри Сарретт — одинокая женщина, обвиненная в пособничестве в организации заговора с целью убийства президента Линкольна. И поскольку вся нация повернулась против нее, Мэри вынуждена положиться на неохотно защищающего ее адвоката, чтобы докопаться до правды и доказать свою невиновность.


MediaInfo ▼
TextGeneral
Complete name : C:agovorwica_HDRip_2010.avi
Format : AVI
Format/Info : Audio Video Interleave
File size : 743 MiB
Duration : 2h 2mn
Overall bit rate : 850 Kbps
Writing application : VirtualDubMod 1.5.10.2 (build 2540/release)
Writing library : VirtualDubMod build 2540/release
Video #0
ID : 0
Format : MPEG-4 Visual
Format profile : Advanced [email protected]
Format settings, BVOP : 1
Format settings, QPel : No
Format settings, GMC : No warppoints
Format settings, Matrix : Custom
Codec ID : XVID
Codec ID/Hint : XviD
Duration : 2h 2mn
Bit rate : 713 Kbps
Width : 656 pixels
Height : 272 pixels
Display aspect ratio : 2.40:1
Frame rate : 23.976 fps
Color space : YUV
Chroma subsampling : 4:2:0
Bit depth : 8 bits
Scan type : Progressive
Compression mode : Lossy
Bits/(Pixel*Frame) : 0.167
Stream size : 623 MiB (84%)
Writing library : XviD 1.2.1 (UTC 2008-12-04)
Audio #1
ID : 1
Format : MPEG Audio
Format version : Version 1
Format profile : Layer 3
Codec ID : 55
Codec ID/Hint : MP3
Duration : 2h 2mn
Bit rate mode : Constant
Bit rate : 128 Kbps
Channel(s) : 2 channels
Sampling rate : 48.0 KHz
Compression mode : Lossy
Stream size : 112 MiB (15%)
Alignment : Aligned on interleaves
Interleave, duration : 42 ms (1.00 video frame)
Interleave, preload duration : 504 ms
Writing library : LAME3.97
Encoding settings : -m s -V 4 -q 2 -lowpass 17 -b 128
♥ Качество: HDRip | Сэмпл
♥ Продолжительность: 02:02:16

♥ Формат: AVI
♥ Видео кодек: XviD
♥ Аудио кодек: MP3
♥ Видео: 656x272 (2.40:1), 23.976 fps, XviD build 50 ~713 kbps avg, 0.167 bit/pixel
♥ Аудио: 48 kHz, MPEG Layer 3, 2 ch, ~128.00 kbps avg

♥ Дата премьеры (мир): 11 сентября 2010
♥ Дата премьеры (РФ): 5 января 2012, «Вольга»

Релиз Группы "Virtus"

Стол заказов / Вступление в РГ / Благодарности, критика и другое


b23e02b18ba3cc0f0fd30c3e01e7aa70279cf77aЗаговорщица / The Conspirator (Роберт Редфорд, драма, криминал, история, 2010) [HDRip, Профессиональный (многоголосый закадровый)] Заговорщица / The Conspirator (Роберт Редфорд, драма, криминал, история, 2010) [HDRip, Профессиональный (многоголосый закадровый)] " />

Аплоадер: Админ, дата: 11-12-2012, 16:55, торрент скачан: 359 раз

Понравилась раздача? Посмотрите эти:
  • Заговорщица / The Conspirator (Роберт Редфорд, драма, криминал, история, 20 ...
  • Погнали! / Getaway (Кортни Соломон, Боевик, Криминал, 2013) [HDRip, Професс ...
  • Погнали! / Getaway (Кортни Соломон, Боевик,Криминал, 2013) [HDRip, Професси ...
  • Ледяной / The Iceman (Ариэль Вромен, триллер, драма, криминал, биография, 2 ...
  • Решала (Роман Асхаев, Драма,Криминал, 2012) [WEB-DLRip, Не требуется]
  • Игра смерти / Game of death (Роберт Клауз, Саммо Хунг Кам-Бо, Брюс Ли, боев ...
  • Цель Номер Один / Zero Dark Thirty (Кэтрин Бигелоу, боевик, триллер, драма, ...
  • Неуловимые / Red Dawn (Дэн Брэдли, боевик, 2012) [HDRip, Профессиональный ( ...
  • В хлам / Smashed (Джеймс Понсольдт, Драма, комедия, 2012) [HDRip, Профессио ...
  • Скуби-Ду! Маска Синего Сокола / Scooby-Doo! Mask Of The Blue Falcon (Оливье ...
  • Лучший стрелок / Top Gun (Тони Скотт, боевик, драма, мелодрама, 1986) [BDRi ...
  • Псы войны / The Dogs of War (Джон Ирвин, боевик, драма, приключения, военны ...
  • Мой парень – псих / Silver Linings Playbook (Дэвид О. Расселл, Драма, мелод ...
  • Чемпионат Европы 2012 / Группа D / 1-й тур / Украина - Швеция / Спорт 1 [11 ...
  • Tank Feat. T.I. & Kris Stephens / Compliments [2012, RnB,Hip-Hop, HDRip]
  • Следопыт / Tracker (Йен Шарп, боевик, драма, приключения, 2010) [HDRip, Про ...
  • Буря в Арктике / Arctic Blast (Брайан Тренчард-Смит, фантастика, триллер, 2 ...
  • Индиана Джонс: В поисках утраченного ковчега / Indiana Jones and the Raider ...
  • Заговорщица / The Conspirator (Деклан О’Брайэн, Драма, криминал, история, 2 ...
  • Романтики / The Romantics (Галт Нидерхоффер, Драма, мелодрама, комедия, 201 ...
  • Чемпионат Европы 2012 / Группа B / 1-й тур / Германия - Португалия / Спорт ...
  • Глушь / Resurrection County (Matt Zettell, ужасы, триллер, 2008) [DVDRip, П ...
  • Искажение / Skew (Сейв Челенз, ужасы, триллер, 2011) [HDRip, Профессиональн ...
  • Ничего, кроме правды / Nothing But the Truth (Род Лури, триллер, драма, 200 ...
  • Крузо / Crusoe (Калеб Дешанель, Драма, 1988) [HDTVRip, Профессиональный (дв ...
  • Информация
    Посетители, находящиеся в группе Гости, не могут оставлять комментарии к данной публикации.