вход на сайт

Имя пользователя :
Пароль :

Восстановление пароля Регистрация
Темный сахар / Brown Sugar (Рик Фамуйива, Драма, мелодрама, комедия, музыка, 2002) [DVDRip, Профессиональный (многоголосый, закадровый)]
Рейтинг:
(голосов: 1)



[img]{THEME}/images/logopost.png[/img]



Темный сахар / Brown Sugar

Год выпуска: 2002
Страна: США
Производство: 20th Century Fox Film Corporation, Evergreen Productions, Fox Searchlight Pictures, Heller Highwater Productions,Magic Johnson Entertainment
Жанр: Драма, мелодрама, комедия, музыка

Режиссёр: Рик Фамуйива / Rick Famuyiwa
В ролях: Тэй Диггз, Санаа Лэтэн, Мос Деф, Николь Ари Паркер, Борис Коджо, Куин Латифа, Эрик Уэйнер, Реджи Уайнс, Уенделл Пирс, Кул Дж. Рэп...

Перевод: Профессиональный (многоголосый, закадровый)
Субтитры: нет

Описание: Cидни и Дре знакомы с самого детства. Она — музыкальный критик. Он — владелец звукозаписывающей компании. Но, несмотря на то, что все эти годы их связывает только дружба, известие о предстоящей женитьбе Дре повергает Сидни в шок. Девушка внезапно осознает, что Дре — главная любовь ее жизни. И теперь она готова на все, чтобы не потерять ее…
Качество: DVDRip
Продолжительность: 01:44:51

Формат: AVI
Видео кодек: XviD
Аудио кодек: MP3
Видео: 624x336 (1.85:1), 25.000 fps, XviD ~ 856 kbps avg, 0.163 bit/pixel
Аудио: 48 kHz, MPEG Layer 3, 2 ch, ~128.00 kbps avg

"MediaInfo" ▼TextОбщее
Полное имя : Temnyi.sahar.2002.P.DVDRip.745MB.avi
Формат : AVI
Формат/Информация : Audio Video Interleave
Размер файла : 745 Мбайт
Продолжительность : 1 ч. 44 м.
Общий поток : 993 Кбит/сек
Программа кодирования : VirtualDubMod 1.5.10.3 (build 2550/release)
Библиотека кодирования : VirtualDubMod build 2550/release
Видео
Идентификатор : 0
Формат : MPEG-4 Visual
Профиль формата : Advanced [email protected]
Параметр BVOP формата : 1
Параметр QPel формата : Нет
Параметр GMC формата : Без точки перехода
Параметр матрицы формата : Выборочная
Идентификатор кодека : XVID
Идентификатор кодека/Подсказка : XviD
Продолжительность : 1 ч. 44 м.
Битрейт : 856 Кбит/сек
Ширина : 624 пикселя
Высота : 336 пикселей
Соотношение сторон : 1,85:1
Частота кадров : 25,000 кадров/сек
Цветовое пространство : YUV
Субдискретизация насыщенности : 4:2:0
Битовая глубина : 8 бит
Тип развёртки : Прогрессивная
Метод сжатия : С потерями
Бит/(Пиксели*Кадры) : 0.163
Размер потока : 642 Мбайт (86%)
Библиотека кодирования : XviD 65
Аудио
Идентификатор : 1
Формат : MPEG Audio
Версия формата : Version 1
Профиль формата : Layer 3
Режим : Joint stereo
Расширение режима : MS Stereo
Идентификатор кодека : 55
Идентификатор кодека/Подсказка : MP3
Продолжительность : 1 ч. 44 м.
Вид битрейта : Постоянный
Битрейт : 128 Кбит/сек
Каналы : 2 канала
Частота : 48,0 КГц
Метод сжатия : С потерями
Размер потока : 96,0 Мбайт (13%)
Выравнивание : Соединение по промежуткам
Продолжительность промежутка : 40 мс. (1,00 видеокадр)
Время предзагрузки промежутка : 504 мс.


Стол заказов POWER | Отзывы | Военкомат RG POWER


a75aed0d854666c92bb0c5bd5c60e9ebafe3157dТемный сахар / Brown Sugar (Рик Фамуйива, Драма, мелодрама, комедия, музыка, 2002) [DVDRip, Профессиональный (многоголосый, закадровый)] Темный сахар / Brown Sugar (Рик Фамуйива, Драма, мелодрама, комедия, музыка, 2002) [DVDRip, Профессиональный (многоголосый, закадровый)] " />

Аплоадер: Админ, дата: 12-01-2013, 20:22, торрент скачан: 359 раз

Понравилась раздача? Посмотрите эти:
  • Грязная кампания за честные выборы / The Campaign (Джей Роуч , Комедия,201 ...
  • Слежка / The Letter (Джей Ананья, Триллер, драма, 2012) [DVDRip, Профессион ...
  • Это - Англия. Год 1986 / This Is England 86 // Сезон 1, эпизоды с 1 по 4 (и ...
  • К черному морю (Андрей Тутышкин, мелодрама, комедия, 1957) [DVDRip, не треб ...
  • Киддо - супергрузовичок / Kiddo The Super Truck (Д. Нэйр, Мультфильм, 2002) ...
  • Отбой / Taps (Харольд Беккер, Драма, 1981) [DVDRip, Профессиональный (много ...
  • Путешествие на дно моря / Voyage to the Bottom of the Sea (Ирвин Аллен / I ...
  • Кажется, я люблю свою жену / I Think I Love My Wife (Крис Рок, Драма, мелод ...
  • Кажется, я люблю свою жену / I Think I Love My Wife (Крис Рок, Драма, мелод ...
  • Огненный шторм / Firestorm (Дин Семлер, Боевик, Триллер, 1998) [DVDRip, Про ...
  • Бог любви / God of Love (Люк Мэзени, Короткометражка, фэнтези, комедия, мел ...
  • Любовь по расписанию / Поезд (Сергей Мезенцев, мелодрама, 2012) [HDTVRip, Н ...
  • К-9: Рождественские приключения / K9 Adventures: A Christmas Tale (Бен Гурл ...
  • Кейси Джонс / Casey Jones (Иларион Бэнкс, Короткометражка, фэнтези, боевик, ...
  • Заместитель / Il supplente (Андреа Жублин, Короткометражка, комедия, 2007) ...
  • Покорить высоту / Take It to the Limit (Сэм Кит / Sam Kieth, семейный, 2000 ...
  • Светлячок. Воссоединение Коричневых плащей к 10 годовщине / Firefly 10th An ...
  • А что насчет тебя? / How About You (Энтони Бирн, Драма, комедия, 2007) [DVD ...
  • У дьявола нет лица / Plasterhead (Кевин Хиггинс / Kevin Higgins, ужасы, три ...
  • Детский душ / Baby Shower (Pablo Illanes, Ужасы, 2011) [DVDRip, Любительски ...
  • Привет, Джули! / Flipped (Роб Райнер, драма, мелодрама, комедия , 2010) [HD ...
  • Пулбой: Спасайся кто может / Poolboy: Drowning Out the Fury (Гарретт Бравит ...
  • Пупупиду / Poupoupidou (Жеральд Юсташ-Матье, комедия, криминал, 2011) [DVDR ...
  • Пожирая живых / Ночь зомби / Zombie Night (Дэвид Дж. Фрэнсис, Ужасы, комеди ...
  • Музыка внутри / Music Within (Стивен Савалич, Драма, мелодрама, комедия, во ...
  • Информация
    Посетители, находящиеся в группе Гости, не могут оставлять комментарии к данной публикации.