вход на сайт

Имя пользователя :
Пароль :

Восстановление пароля Регистрация
Отбой / Taps (Харольд Беккер, Драма, 1981) [DVDRip, Профессиональный (многоголосый, закадровый)]
Рейтинг:
(голосов: 1)



[img]{THEME}/images/logopost.png[/img]



Отбой / Taps

Год выпуска: 1981
Страна: США
Производство: 20th Century Fox Film Corporation
Жанр: Драма

Режиссёр: Харольд Беккер
В ролях: Джордж К. Скотт, Тимоти Хаттон, Ронни Кокс, Шон Пенн, Том Круз, Брендан Уорд, Эван Хэндлер, Джон П. Навин мл., Билли Ван Зандт, Джанкарло Эспозито

Перевод: Профессиональный (многоголосый закадровый)
Субтитры: Oтсутствуют

Описание: Фанатично преданные своему военному училищу курсанты вдруг узнают, что их школу продают застройщикам. Они отказываются признать поражение и решают отстоять свою академию и собственную честь. Но юным храбрецам предстоит осознать, что даже самые мужественные решения могут иметь неожиданные, а порой и роковые последствия!
Качество: DVDRip
Продолжительность: 02:01:11

Формат: AVI
Видео кодек: XviD
Аудио кодек: AC3
Видео: 720x384 (1,875:1), 25 fps, XviD ~ 1264 kbps avg, 0.183 bit/pixel
Аудио: 48 kHz, Audio Coding 3, 4ch (L,C,R,SL) 448 kbps
"MediaInfo" ▼TextОбщее
Полное имя : Otboj.1981.DVDRip.avi
Формат : AVI
Формат/Информация : Audio Video Interleave
Размер файла : 1,46 Гбайт
Продолжительность : 2 ч. 1 м.
Общий поток : 1722 Кбит/сек
Программа кодирования : VirtualDubMod 1.5.10.3 | www.virtualdub-fr.org || (build 2550/release)
Библиотека кодирования : VirtualDubMod build 2550/release
Видео
Идентификатор : 0
Формат : MPEG-4 Visual
Профиль формата : Advanced [email protected]
Параметр BVOP формата : 1
Параметр QPel формата : Нет
Параметр GMC формата : Без точки перехода
Параметр матрицы формата : Выборочная
Идентификатор кодека : XVID
Идентификатор кодека/Подсказка : XviD
Продолжительность : 2 ч. 1 м.
Битрейт : 1264 Кбит/сек
Ширина : 720 пикселей
Высота : 384 пикселя
Соотношение сторон : 1,875
Частота кадров : 25,000 кадров/сек
Цветовое пространство : YUV
Субдискретизация насыщенности : 4:2:0
Битовая глубина : 8 бит
Тип развёртки : Прогрессивная
Метод сжатия : С потерями
Бит/(Пиксели*Кадры) : 0.183
Размер потока : 1,07 Гбайт (73%)
Библиотека кодирования : XviD 65
Аудио
Идентификатор : 1
Формат : AC-3
Формат/Информация : Audio Coding 3
Расширение режима : CM (complete main)
Идентификатор кодека : 2000
Продолжительность : 2 ч. 1 м.
Вид битрейта : Постоянный
Битрейт : 448 Кбит/сек
Каналы : 4 канала
Расположение каналов : Front: L C R, Side: C
Частота : 48,0 КГц
Битовая глубина : 16 бит
Метод сжатия : С потерями
Размер потока : 388 Мбайт (26%)
Выравнивание : Разделение по промежуткам
Продолжительность промежутка : 40 мс. (1,00 видеокадр)
Время предзагрузки промежутка : 500 мс

Стол заказов POWER | Отзывы | Военкомат RG POWER


d1dfbdc9d3351d5e299d22e35c9131f143b15ac6Отбой / Taps (Харольд Беккер, Драма, 1981) [DVDRip, Профессиональный (многоголосый, закадровый)] Отбой / Taps (Харольд Беккер, Драма, 1981) [DVDRip, Профессиональный (многоголосый, закадровый)] " />

Аплоадер: Админ, дата: 11-01-2013, 19:43, торрент скачан: 359 раз

Понравилась раздача? Посмотрите эти:
  • Околофутбола (Антон Борматов, драма, криминал, 2013) [DVDRip, Не требуется] ...
  • Прошлое / Le passé (Асгар Фархади, Драма, детектив , 2013) [HDRip, Авторски ...
  • Отбой / Кадеты / Taps (Харольд Беккер, драма, 1981) [HDRip, Профессиональны ...
  • Слежка / The Letter (Джей Ананья, Триллер, драма, 2012) [DVDRip, Профессион ...
  • Миллион для чайников / The Brass Teapot (Рамаа Мосли, Фэнтези, триллер, ком ...
  • Астрал на улице Арлетт / 388 Arletta Avenue (Рэндолл Коул, Триллер, 2011) [ ...
  • Марсианская одиссея / Stranded (Мария Лидон, Фантастика, драма, 2001) [DVDR ...
  • Глушь / Resurrection County (Матт Зеттел, Ужасы,триллер, 2008) [DVDRip, Про ...
  • Двенадцать бедствий на Рождество / The 12 Disasters of Christmas (Стивен Р. ...
  • Путешествие на дно моря / Voyage to the Bottom of the Sea (Ирвин Аллен / I ...
  • Путешествие на дно моря / Voyage to the Bottom of the Sea (Ирвин Аллен / I ...
  • Кажется, я люблю свою жену / I Think I Love My Wife (Крис Рок, Драма, мелод ...
  • Кажется, я люблю свою жену / I Think I Love My Wife (Крис Рок, Драма, мелод ...
  • Темный сахар / Brown Sugar (Рик Фамуйива, Драма, мелодрама, комедия, музыка ...
  • Огненный шторм / Firestorm (Дин Семлер, Боевик, Триллер, 1998) [DVDRip, Про ...
  • К-9: Рождественские приключения / K9 Adventures: A Christmas Tale (Бен Гурл ...
  • Покорить высоту / Take It to the Limit (Сэм Кит / Sam Kieth, семейный, 2000 ...
  • А что насчет тебя? / How About You (Энтони Бирн, Драма, комедия, 2007) [DVD ...
  • Боец из трущоб / Gutter King (Кейт Алан Моррис / Keith Alan Morris, боевик, ...
  • Кошмар / Nightmare / Qing Yan (Херман Яу, ужасы, триллер, 2012) [DVDRip, Лю ...
  • Нет мужчин - нет проблем / Without Men (Габриела Тальявини, Комедия, 2011) ...
  • Застенок / The Jailhouse (Билли Льюис, Ужасы, Триллер, Детектив, 2009) [DV ...
  • Глаз шторма / The Eye of the Storm (Фред Скеписи, Драма, 2011) [HDRip, Проф ...
  • Человек из банки (Иван Кульнев, Комедия, 2012) [DVDRip, Не требуется]
  • Сдохни, Джон Такер / John Tucker Must Die (Бетти Томас, мелодрама, комедия, ...
  • Информация
    Посетители, находящиеся в группе Гости, не могут оставлять комментарии к данной публикации.