вход на сайт

Имя пользователя :
Пароль :

Восстановление пароля Регистрация
Джефф, живущий дома / Jeff, Who Lives at Home (Джей Дюпласс, Марк Дюпласс, Драма, комедия, 2011) [BDRip, Профессиональный (многоголосый, закадровый)]
Рейтинг:
(голосов: 1)



[img]{THEME}/images/logopost.png[/img]



Джефф, живущий дома / Jeff, Who Lives at Home
«The first step to finding your destiny is leaving your mothers basement.»


Год выпуска: 2011
Страна: США
Производство: Indian Paintbrush, Jeff Brothers Productions
Жанр: Драма, комедия

Режиссёр: Джей Дюпласс / Jay Duplass, Марк Дюпласс / Mark Duplass
В ролях: Джейсон Сигел, Эд Хелмс, Сьюзен Сарандон, Джуди Грир, Рей Дон Чонг, Steve Zissis, Ивэн Росс, Бенжамин Брант Бикхэм, Ли Нгуйен, Т. Джоэль Смит

Перевод: Профессиональный (многоголосый закадровый)
Субтитры: нет

Описание: Картина станет хроникой одного дня из жизни двух братьев — живущего дома лузера и его уравновешенного и властного родственника.



Качество: BDRip
Продолжительность: 01:18:28 час.

Формат: AVI
Видео кодек: XviD
Аудио кодек: AС3
Видео: 720x400 (16:9), 23.976 fps, XviD 65 ~2055 kbps avg, 0.298 bit/pixel
Аудио: 48 kHz, AC3 Dolby Digital, 3/2 (L,C,R,l,r) + LFE ch, ~448.00 kbps

MediaInfo" ▼TextGeneral
Complete name : Dzheff_zhivuwij_doma_2011_BDRip_1,45GB.avi
Format : AVI
Format/Info : Audio Video Interleave
File size : 1.46 GiB
Duration : 1h 23mn
Overall bit rate : 2 512 Kbps
Writing application : VirtualDubMod 1.5.10.2 (build 2540/release)
Writing library : VirtualDubMod build 2540/release
Video
ID : 0
Format : MPEG-4 Visual
Format profile : Advanced [email protected]
Format settings, BVOP : 1
Format settings, QPel : No
Format settings, GMC : No warppoints
Format settings, Matrix : Custom
Codec ID : XVID
Codec ID/Hint : XviD
Duration : 1h 23mn
Bit rate : 2 055 Kbps
Width : 720 pixels
Height : 400 pixels
Display aspect ratio : 16:9
Frame rate : 23.976 fps
Color space : YUV
Chroma subsampling : 4:2:0
Bit depth : 8 bits
Scan type : Progressive
Compression mode : Lossy
Bits/(Pixel*Frame) : 0.298
Stream size : 1.19 GiB (82%)
Writing library : XviD 65
Audio
ID : 1
Format : AC-3
Format/Info : Audio Coding 3
Mode extension : CM (complete main)
Format settings, Endianness : Big
Codec ID : 2000
Duration : 1h 23mn
Bit rate mode : Constant
Bit rate : 448 Kbps
Channel(s) : 6 channels
Channel positions : Front: L C R, Side: L R, LFE
Sampling rate : 48.0 KHz
Bit depth : 16 bits
Compression mode : Lossy
Stream size : 266 MiB (18%)
Alignment : Split accross interleaves
Interleave, duration : 42 ms (1.00 video frame)
Interleave, preload duration : 500 ms


8ee184e609b19b9d41840aaf35f8ef96b786c149Джефф, живущий дома / Jeff, Who Lives at Home (Джей Дюпласс, Марк Дюпласс, Драма, комедия, 2011) [BDRip, Профессиональный (многоголосый, закадровый)] Джефф, живущий дома / Jeff, Who Lives at Home (Джей Дюпласс, Марк Дюпласс, Драма, комедия, 2011) [BDRip, Профессиональный (многоголосый, закадровый)] " />

Аплоадер: Админ, дата: 31-12-2012, 16:54, торрент скачан: 359 раз

Понравилась раздача? Посмотрите эти:
  • Сайрус / Cyrus (Джей Дюпласс, Марк Дюпласс, драма, мелодрама, 2010) [HDRip, ...
  • Орудие смерти / A-i-deul... (Ли Гю Ман, Триллер, криминал, 2011) [DVDRip, П ...
  • Верное дельце / Une pure affaire (Александр Коффре, Боевик, Комедия, Кримин ...
  • Мужество / Wymyk (Грег Зглински, драма, 2011) [DVDRip, Любительский (одного ...
  • 42 / 42 (Брайан Хелгеленд, драма, биография, спорт, 2013) [BDRip, Профессио ...
  • Сломленные / Broken (Руфус Норрис, драма, 2012) [HDRip, Профессиональный (м ...
  • 23:59 / 23:59 (Гилберт Чан, Ужасы, 2011) [HDRip, Любительский (одноголосый ...
  • МЫ. Верим в любовь / W.E. (Мадонна, Драма, мелодрама, история, 2011) [BDRip ...
  • Безопасность не гарантируется / Safety Not Guaranteed (Колин Треворроу, фан ...
  • В хлам / Smashed (Джеймс Понсольдт, Драма, комедия, 2012) [HDRip, Профессио ...
  • Суперстар / Superstar (Ксавье Джианноли, Драма, комедия, 2012) [HDRip, Проф ...
  • Плохая актриса / Bad Actress (Роберт Ли Кинг, комедия, 2011) [DVDRip, Профе ...
  • Джефф, живущий дома / Jeff, Who Lives at Home (Джей Дюпласс, Марк Дюпласс, ...
  • Доля ангелов / The Angels Share (Кен Лоуч, драма, комедия, 2012) [HDRip, Пр ...
  • Джефф, живущий дома / Jeff, Who Lives at Home (Джей Дюпласс, Марк Дюпласс, ...
  • Захват / Carjacked (Джон Бонито, триллер, 2011)[BDRip, Профессиональный (мн ...
  • Джефф, живущий дома / Jeff, Who Lives at Home (Джей Дюпласс, Марк Дюпласс, ...
  • Джефф, живущий дома / Jeff, Who Lives at Home (Джей Дюпласс, Марк Дюпласс, ...
  • Дом вверх дном / Bringing Down the House (Адам Шенкман, комедия, 2003) [BDR ...
  • Один дома 4 / Home Alone 4 (Род Дэниэл, комедия, криминал, семейный, 2002) ...
  • Последний отпуск / Last Holiday (Уэйн Ван, Драма, комедия, приключения, 200 ...
  • Трус / Faintheart (Вито Рокко, Комедия, 2008) [BDRip, Профессиональный (дву ...
  • Супершторм в Сиэтле / Seattle Superstorm (Джейсон Бурк, фантастика, боевик ...
  • Девушки в опасности / Damsels in Distress (Уит Стиллман, драма, мелодрама, ...
  • Глаз шторма / The Eye of the Storm (Фред Скеписи, Драма, 2011) [HDRip, Проф ...
  • Информация
    Посетители, находящиеся в группе Гости, не могут оставлять комментарии к данной публикации.