вход на сайт

Имя пользователя :
Пароль :

Восстановление пароля Регистрация
Билли Эллиот / Billy Elliot (Стивен Долдри, Драма, комедия, музыка, 2000) [BDRip-AVC, Дубляж, Оригинал, Sub]
Рейтинг:
(голосов: 1)



[img]{THEME}/images/logopost.png[/img]



Билли Эллиот / Billy Elliot
«Inside every one of us is a special talent waiting to come out. The trick is finding it.»


Год выпуска: 2000
Страна: США
Производство: Arts Council of England, BBC Films, Studio Canal
Жанр: Драма, комедия, музыка

Режиссёр: Стивен Долдри
В ролях: Джейми Белл, Джейми Дрэйвен, Гари Льюис, Джули Уолтерс, Стюарт Уэллс

Перевод: Дубляж, Оригинал (английский)
Субтитры: Русские, английские

Описание: Чем должен увлекаться сын шахтера? Сомнений нет: боксом и только боксом. Но у 11-летнего Билли Эллиота на этот счет было свое мнение. Он был влюблен в… балет.

Отец и старший брат Тони впадают в ярость, когда узнают, что он «променял бокс» на менее «мужественный балет». И только острая на язык миссис Уилкинсон поддерживает Билли в его желании танцевать, и он получает шанс поступить в Королевскую балетную школу.



Автор рипа:

Качество: BDRip-AVC | исх. Билли Эллиот / Billy Elliot (2000) Blu-Ray 1080p
Продолжительность: 01:50:49 час.

Формат: MKV
Видео кодек: x264
Аудио кодек: AC3
Видео: 1024x554 (16:9), 23.976 fps, x264 ~2500 kbps avg, 0.184 bit/pixel
Аудио #1: 48 kHz, AC3 Dolby Digital, 6 ch, ~448.00 kbps avg | Дубляж
Аудио #2: 48 kHz, AC3 Dolby Digital, 6 ch, ~448.00 kbps avg | Оригинал (английский)

Дата премьеры (мир): 19 мая 2000
Дата премьеры (РФ): 12 апреля 2001, «West»

"MediaInfo" ▼Общее
Уникальный идентификатор : 201956557719199207582498932205377247946 (0x97EF6B0F00C417188F126AFD143B5ACA)
Полное имя : G:фильмыBilli.Elliot.2000.x264.BDRip.(AVC).ExKinoRay.mkv
Формат : Matroska
Версия формата : Version 2
Размер файла : 2,63 Гбайт
Продолжительность : 1 ч. 50 м.
Общий поток : 3397 Кбит/сек
Название фильма : Billi.Elliot.2000.x264.BDRip.(AVC).ExKinoRay
Дата кодирования : UTC 2012-10-30 14:19:45
Программа кодирования : mkvmerge v4.0.0 (The Stars were mine) сборка от Jun 6 2010 16:18:42
Библиотека кодирования : libebml v1.0.0 + libmatroska v1.0.0

Видео
Идентификатор : 1
Формат : AVC
Формат/Информация : Advanced Video Codec
Профиль формата : [email protected]
Параметр CABAC формата : Да
Параметр ReFrames формата : 8 кадров
Идентификатор кодека : V_MPEG4/ISO/AVC
Продолжительность : 1 ч. 50 м.
Битрейт : 2500 Кбит/сек
Ширина : 1024 пикселя
Высота : 554 пикселя
Соотношение сторон : 16:9
Частота кадров : 23,976 кадра/сек
Цветовое пространство : YUV
Субдискретизация насыщенности : 4:2:0
Битовая глубина : 8 бит
Тип развёртки : Прогрессивная
Бит/(Пиксели*Кадры) : 0.184
Размер потока : 1,88 Гбайт (72%)
Заголовок : Rip by Enigma
Библиотека кодирования : x264 core 116 r2074 2641b9e
Настройки программы : cabac=1 / ref=8 / deblock=1:-2:-2 / analyse=0x3:0x133 / me=umh / subme=11 / psy=1 / psy_rd=1.00:0.00 / mixed_ref=1 / me_range=48 / chroma_me=1 / trellis=2 / 8x8dct=1 / cqm=0 / deadzone=21,11 / fast_pskip=0 / chroma_qp_offset=-2 / threads=3 / sliced_threads=0 / nr=0 / decimate=0 / interlaced=0 / bluray_compat=0 / constrained_intra=0 / bframes=8 / b_pyramid=2 / b_adapt=2 / b_bias=0 / direct=3 / weightb=1 / open_gop=0 / weightp=2 / keyint=240 / keyint_min=23 / scenecut=40 / intra_refresh=0 / rc=2pass / mbtree=0 / bitrate=2500 / ratetol=1.0 / qcomp=0.60 / qpmin=10 / qpmax=51 / qpstep=4 / cplxblur=20.0 / qblur=0.5 / ip_ratio=1.40 / pb_ratio=1.30 / aq=2:1.00
Язык : English
Default : Нет
Forced : Нет

Аудио #1
Идентификатор : 2
Формат : AC-3
Формат/Информация : Audio Coding 3
Расширение режима : CM (complete main)
Идентификатор кодека : A_AC3
Продолжительность : 1 ч. 50 м.
Вид битрейта : Постоянный
Битрейт : 448 Кбит/сек
Каналы : 6 каналов
Расположение каналов : Front: L C R, Side: L R, LFE
Частота : 48,0 КГц
Битовая глубина : 16 бит
Метод сжатия : С потерями
Размер потока : 355 Мбайт (13%)
Язык : Russian
Default : Да
Forced : Нет

Аудио #2
Идентификатор : 3
Формат : AC-3
Формат/Информация : Audio Coding 3
Расширение режима : CM (complete main)
Идентификатор кодека : A_A
d480b6dbb171077ae4d854f2fd3bfa699e3200f6Билли Эллиот / Billy Elliot (Стивен Долдри, Драма, комедия, музыка, 2000) [BDRip-AVC, Дубляж, Оригинал, Sub] Билли Эллиот / Billy Elliot (Стивен Долдри, Драма, комедия, музыка, 2000) [BDRip-AVC, Дубляж, Оригинал, Sub] " />

Аплоадер: Админ, дата: 25-12-2012, 19:57, торрент скачан: 359 раз

Понравилась раздача? Посмотрите эти:
  • Война миров Z / World War Z [Theatrical Cut] (Марк Форстер, ужасы, фантасти ...
  • Стукач / Snitch (Рик Роман Во, Триллер, драма, 2013) [BDRip-AVC, Дубляж, Ор ...
  • Неспящие в Сиэтле / Sleepless in Seattle (Нора Эфрон, Драма, мелодрама, ком ...
  • Никто не выжил / No One Lives (Рюхэй Китамура, Триллер, ужасы, 2012) [BDRip ...
  • Летучий отряд Скотланд-Ярда / The Sweeney (Ник Лав, Боевик, драма, криминал ...
  • Узник / One in the Chamber (Уильям Кауфман, боевик, триллер, криминал, 2012 ...
  • Миллион для чайников / The Brass Teapot (Рамаа Мосли, драма, биография, ист ...
  • Перелом / Fracture (Грегори Хоблит, Триллер, драма, криминал, детектив, 200 ...
  • Даю год / I Give It a Year (Дэн Мазер, мелодрама, комедия, 2012) [BDRip-AVC ...
  • Ангелы Чарли / Charlies Angels (МакДжи, Боевик, триллер, комедия, криминал, ...
  • Моя ужасная няня 2 / Nanny McPhee and the Big Bang (Сузанна Уайт, Фэнтези, ...
  • Подземелье драконов / Dungeons & Dragons (Кортни Соломон, Фэнтези, боевик, ...
  • Толстяк на ринге / Here Comes the Boom (Фрэнк Корачи, Боевик, комедия, 2012 ...
  • Суррогат / The Sessions (Бен Луин, Драма, 2012) [BDRip-AVC, Профессиональны ...
  • Начинающие / Beginners (Майк Миллс / Mike Mills, драма, мелодрама, комедия, ...
  • Ищу друга на конец света / Seeking a Friend for the End of the World (Лорен ...
  • Третий лишний / Ted (Сет МакФарлейн, Фэнтези, комедия, 2012) [BDRip-AVC, Ду ...
  • Наёмные убийцы / Contract Killers (Джастин Б. Родс, Боевик, 2009) [HDRip-AV ...
  • Эд Вуд / Ed Wood (Тим Бёртон, драма, комедия, биография, 1994) [BDRip-AVC, ...
  • Четыре Рождества / Four Christmases (Сет Гордон, Драма, мелодрама, комедия, ...
  • Помогите Стать Отцом / Not Suitable For Children (Питер Темплмен, Мелодрама ...
  • Лоракс: Серенада / The Lorax: Serenade (Кайл Балда, мультфильм, комедия, му ...
  • Билли Эллиот / Billy Elliot (Стивен Долдри, Драма, комедия, музыка, 2000) [ ...
  • Билли Эллиот / Billy Elliot (Стивен Долдри, комедия, драма, 2000)[DVDRip, П ...
  • Билли Эллиот / Billy Elliot (Стивен Долдри, драма, комедия, музыка, 2000) [ ...
  • Информация
    Посетители, находящиеся в группе Гости, не могут оставлять комментарии к данной публикации.