вход на сайт

Имя пользователя :
Пароль :

Восстановление пароля Регистрация
На Дороге / On The Road (Уолтер Саллес, Драма, приключения, 2012) [HDRip-AVC, Дубляж]
Рейтинг:
(голосов: 1)



[img]{THEME}/images/logopost.png[/img]



На Дороге / On The Road
«Навстречу самому себе»


Год выпуска: 2012
Страна: Франция, Великобритания, США, Бразилия
Производство: American Zoetrope, Canal+ [fr]
Жанр: Драма, приключения

Режиссёр: Уолтер Саллес
В ролях: Гаррет Хедлунд, Сэм Райли, Кристен Стюарт, Эми Адамс, Том Стёрридж, Дэнни Морган, Алиси Брага, Элизабет Мосс, Кирстен Данст, Вигго Мортенсен, Стив Бушеми

Перевод: Дубляж
Субтитры: Отсутствуют

Описание: После смерти отца начинающий нью-йоркский писатель Сэл Парадайз знакомится с молодым и очаровательным Дином Мориарти, только что вышедшим из тюрьмы и женатым на соблазнительной красотке Марилу. Они мгновенно становятся неразлучными друзьями. Стремясь к свободе, Сэл, Дин и Марилу порывают с условностями жизни и отправляются в путешествие навстречу миру, людям и самим себе.



Качество: HDRip-AVC | Сэмпл
Продолжительность: 02:19:42 час.


Формат: MKV
Видео кодек: x264
Аудио кодек: AC3
Видео: 960x408 (2.35:1), 24.000 fps, x264 ~1 103 kbps avg 0.117 bit/pixel
Аудио: 48 kHz, AC3 Dolby Digital, 3/2 (L,C,R,l,r) + LFE ch, ~384 kbps - (Дубляж)

Дата премьеры (мир): 23 мая 2012
Дата премьеры (РФ): 4 октября 2012, «Другое кино»

MediaInfo ▼
Общее
Уникальный идентификатор : 209258367350701816848793615096497546782 (0x9D6DB2117E58040DAFCCBF76A15FA61E)
Полное имя : D:TempNa_doroge_2012_HDRip_AVC_Dub.mkv
Формат : Matroska
Размер файла : 1,45 Гбайт
Продолжительность : 2 ч. 19 м.
Общий поток : 1488 Кбит/сек
Название фильма : On the Road (Rip by S.T.A.L.K.E.R.2)
Дата кодирования : UTC 2012-11-11 06:10:22
Программа кодирования : mkvmerge v5.6.0 (Kenya Kane) built on May 27 2012 16:44:04
Библиотека кодирования : libebml v1.2.3 + libmatroska v1.3.0

Видео
Идентификатор : 1
Формат : AVC
Формат/Информация : Advanced Video Codec
Профиль формата : [email protected]
Параметр CABAC формата : Да
Параметр ReFrames формата : 12 кадры
Идентификатор кодека : V_MPEG4/ISO/AVC
Продолжительность : 2 ч. 19 м.
Битрейт : 1103 Кбит/сек
Ширина : 960 пикс.
Высота : 408 пикс.
Соотношение сторон : 2,35:1
Частота кадров : 24,000 кадр/сек
Цветовое пространство : YUV
Подвыборка цветности : 4:2:0
Битовая глубина : 8 бит
Тип развёртки : Прогрессивная
Бит/(Пиксели*Кадры) : 0.117
Размер потока : 1,05 Гбайт (72%)
Библиотека кодирования : x264 core 125 r2200 999b753
Настройки программы : cabac=1 / ref=12 / deblock=1:-2:-1 / analyse=0x3:0x113 / me=umh / subme=11 / psy=1 / psy_rd=1.00:0.05 / mixed_ref=1 / me_range=32 / chroma_me=1 / trellis=2 / 8x8dct=1 / cqm=0 / deadzone=21,11 / fast_pskip=0 / chroma_qp_offset=-3 / threads=8 / lookahead_threads=1 / sliced_threads=0 / nr=0 / decimate=0 / interlaced=0 / bluray_compat=0 / constrained_intra=0 / bframes=14 / b_pyramid=2 / b_adapt=2 / b_bias=0 / direct=1 / weightb=1 / open_gop=0 / weightp=2 / keyint=240 / keyint_min=24 / scenecut=40 / intra_refresh=0 / rc_lookahead=40 / rc=2pass / mbtree=1 / bitrate=1103 / ratetol=1.0 / qcomp=0.60 / qpmin=10 / qpmax=51 / qpstep=4 / cplxblur=20.0 / qblur=0.5 / vbv_maxrate=50000 / vbv_bufsize=50000 / nal_hrd=none / ip_ratio=1.40 / aq=1:1.00
Язык : English

Аудио
Идентификатор : 2
Формат : AC-3
Формат/Информация : Audio Coding 3
Расширение режима : CM (complete main)
Идентификатор кодека : A_AC3
Продолжительность : 2 ч. 19 м.
Вид битрейта : Постоянный
Битрейт : 384 Кбит/сек
Канал(ы) : 6 канала(ов)
Расположение каналов : Front: L C R, Side: L R, LFE
Частота : 48,0 КГц
Битовая глубина : 16 бит
Метод сжатия : С потерями
Размер потока : 384 Мбайт (26%)
Заголовок : Dub
Язык : Russian




bc985d5e8eca01f01d27c78ed8bff2a3ae54d8b0На Дороге / On The Road (Уолтер Саллес, Драма, приключения, 2012) [HDRip-AVC, Дубляж] На Дороге / On The Road (Уолтер Саллес, Драма, приключения, 2012) [HDRip-AVC, Дубляж] " />

Аплоадер: Админ, дата: 11-11-2012, 21:49, торрент скачан: 359 раз

Понравилась раздача? Посмотрите эти:
  • Кон-Тики / Kon-Tiki (Хоаким Роннинг, Эспен Сандберг, Приключения, биография ...
  • Кон-Тики / Kon-Tiki (Хоаким Роннинг, Эспен Сандберг, Приключения, биография ...
  • Клин клином / Fire with Fire (Дэвид Баррет, боевик, триллер, криминал, 2012 ...
  • Мрачные небеса / Dark Skies (Скотт Чарльз Стюарт, ужасы, фантастика, трилле ...
  • Идеальный голос / Pitch Perfect (Джейсон Мур, Мелодрама, комедия, музыка, 2 ...
  • Переполох на районе / Les Kaira (Франк Гастамбиде, комедия, 2012) [HDRip-AV ...
  • Железный Кулак [Театральная версия] / The Man with the Iron Fists [Theatric ...
  • Толстяк на ринге / Here Comes the Boom (Фрэнк Корачи, Боевик, комедия, 2012 ...
  • Страшно красив / Beastly (Даниел Барнз, фэнтези, драма, мелодрама, 2011) [H ...
  • Закон доблести / Act of Valor (Майк МакКой, Скотт Во, боевик, триллер, прик ...
  • На дороге / On the Road (Уолтер Саллес, драма, приключения, 2012) [BDRip-AV ...
  • На Дороге / On The Road (Уолтер Саллес, Драма, приключения, 2012) [HDRip-AV ...
  • Патруль / End of Watch (Дэвид Эйр, Триллер, драма, криминал, 2012) [HDRip-A ...
  • Шаг вперед 4 / Step Up Revolution (Скотт Спир, Драма, мелодрама, музыка, 20 ...
  • Обитель Зла: Возмездие / Resident Evil: Retribution (Пол У. С. Андерсон, Уж ...
  • На Дороге / On The Road (Уолтер Саллес, Драма, приключения, 2012) [BDRip 72 ...
  • На Дороге / On The Road (Уолтер Саллес, Драма, приключения, 2012) [BDRip 10 ...
  • На Дороге / On The Road (Уолтер Саллес, Драма, приключения, 2012) [HDRip, Д ...
  • На Дороге / On The Road (Уолтер Саллес, Драма, приключения, 2012) [HDRip, Д ...
  • На Дороге / On The Road (Уолтер Саллес, Драма, приключения, 2012) [DVD9, Ду ...
  • Информация
    Посетители, находящиеся в группе Гости, не могут оставлять комментарии к данной публикации.