вход на сайт

Имя пользователя :
Пароль :

Восстановление пароля Регистрация
ДухLess (Роман Прыгунов, Драма, 2012) [BDRip-AVC, Не требуется]
Рейтинг:
(голосов: 1)



[img]{THEME}/images/logopost.png[/img]



ДухLess



Год выпуска: 2012
Страна: Россия
Производство: Кинослово, Арт Пикчерс Студия
Жанр: Драма

Режиссёр: Роман Прыгунов
В ролях: Данила Козловский, Артем Михалков, Михаил Ефремов, Мария Андреева, Артур Смольянинов, Мария Кожевникова, Сергей Белоголовцев, Игорь Войнаровский, Михаил Люлинецкий, Михаил Мухтасипов

Перевод: Не требуется
Субтитры: Отсутствуют

Описание: Главный герой фильма — 29-летний топ-менеджер крупного международного банка по имени Макс. Он уверен, что жизнь удалась, ведь у него есть то, о чём многие не могут даже и мечтать: дорогая машина, пентхаус и вечеринки. Свою жизнь Максим тратит на зарабатывание денег, а деньги — на ночные клубы, шикарных девушек, кокаин и прочие атрибуты, так называемой, гламурной жизни. Но в какой-то момент к герою приходит осознание того, что с его жизнью что-то не так. И его мир начинает рушиться, подобно карточному домику. В картине говорится о переоценке себя и жизни вокруг, о преодолении внутреннего кризиса.Качество: BDRip-AVC | Сэмпл
Продолжительность:01:45:24 час


Формат: MKV
Видео кодек: x264
Аудио кодек: AC3
Видео:1024x436 (2.35:1), 24.000 fps, x264 ~3 500 kbps avg 0.327 bit/pixel
Аудио: 48 kHz, AC3 Dolby Digital, 3/2 (L,C,R,l,r) + LFE ch, ~448 kbps

Дата премьеры (РФ): 4 октября 2012, «UPI»

MediaInfo ▼Полное имя : DuhLess.2012.x264.O.BDRip.(AVC).mkv
Формат : Matroska
Версия формата : Version 2
Размер файла : 2,91 Гбайт
Продолжительность : 1 ч. 45 м.
Общий поток : 3947 Кбит/сек
Название фильма : R.G.Goliaf - prishel
Дата кодирования : UTC 2012-11-09 18:10:12
Программа кодирования : mkvmerge v5.4.0 (Piper) built on Mar 10 2012 13:34:39
Библиотека кодирования : libebml v1.2.3 + libmatroska v1.3.0

Видео
Идентификатор : 1
Формат : AVC
Формат/Информация : Advanced Video Codec
Профиль формата : [email protected]
Параметр CABAC формата : Да
Параметр ReFrames формата : 9 кадров
Идентификатор кодека : V_MPEG4/ISO/AVC
Продолжительность : 1 ч. 45 м.
Битрейт : 3500 Кбит/сек
Ширина : 1024 пикселя
Высота : 436 пикселей
Соотношение сторон : 2,35:1
Режим частоты кадров : Постоянный
Частота кадров : 24,000 кадра/сек
Цветовое пространство : YUV
Субдискретизация насыщенности : 4:2:0
Битовая глубина : 8 бит
Тип развёртки : Прогрессивная
Бит/(Пиксели*Кадры) : 0.327
Размер потока : 2,52 Гбайт (87%)
Библиотека кодирования : x264 core 125 r2200 999b753
Настройки программы : cabac=1 / ref=9 / deblock=1:-3:-3 / analyse=0x3:0x133 / me=umh / subme=11 / psy=1 / psy_rd=1.00:0.10 / mixed_ref=1 / me_range=32 / chroma_me=1 / trellis=2 / 8x8dct=1 / cqm=0 / deadzone=21,11 / fast_pskip=0 / chroma_qp_offset=-3 / threads=6 / lookahead_threads=1 / sliced_threads=0 / nr=0 / decimate=0 / interlaced=0 / bluray_compat=0 / constrained_intra=0 / bframes=8 / b_pyramid=2 / b_adapt=2 / b_bias=0 / direct=3 / weightb=1 / open_gop=0 / weightp=2 / keyint=250 / keyint_min=23 / scenecut=40 / intra_refresh=0 / rc=2pass / mbtree=0 / bitrate=3500 / ratetol=1.0 / qcomp=0.60 / qpmin=10 / qpmax=51 / qpstep=4 / cplxblur=20.0 / qblur=0.5 / ip_ratio=1.40 / pb_ratio=1.30 / aq=1:0.80
Язык : Russian
Default : Да
Forced : Нет

Аудио
Идентификатор : 2
Формат : AC-3
Формат/Информация : Audio Coding 3
Расширение режима : CM (complete main)
Параметр Endianness формата : Big
Идентификатор кодека : A_AC3
Продолжительность : 1 ч. 45 м.
Вид битрейта : Постоянный
Битрейт : 448 Кбит/сек
Каналы : 6 каналов
Расположение каналов : Front: L C R, Side: L R, LFE
Частота : 48,0 КГц
Битовая глубина : 16 бит
Метод сжатия : С потерями
Размер потока : 338 Мбайт (11%)
Язык : Russian
Default : Да
Forced : Нет

Меню
00:00:00.000 : :Chapter 01
00:10:16.666 : :Chapter 02
00:21:17.750 : :Chapter 03
00:38:58.500 : :Chapter 04
00:52:55.250 : :Chapter 05
01:04:04.208 : :Chapter 06
01:19:12.708 : :Chapter 07
01:28:17.0
ae18e1c40d3a0d8f7281afe9b407214e078d5c38ДухLess (Роман Прыгунов, Драма, 2012) [BDRip-AVC, Не требуется] ДухLess (Роман Прыгунов, Драма, 2012) [BDRip-AVC, Не требуется] " />

Аплоадер: Админ, дата: 10-11-2012, 07:31, торрент скачан: 359 раз

Понравилась раздача? Посмотрите эти:
  • Астрал на улице Арлетт / 388 Arletta Avenue (Рэндолл Коул, Триллер, 2011) [ ...
  • Рикошет / Ricochet (Ник Гомез, драма, детектив, 2011) [BDRip-AVC, Профессио ...
  • Королевство кривых зеркал (Александр Роу, фэнтези, семейный, 1963) [BDRip-A ...
  • Даю год / I Give It a Year (Дэн Мазер, мелодрама, комедия, 2012) [BDRip-AVC ...
  • Джек Ричер / Jack Reacher (Кристофер МакКуорри, Боевик,триллер, криминал, д ...
  • Убей ради меня / Kill for Me (Майкл Гринспен, триллер, драма, 2013) [DVDRip ...
  • Суррогат / The Sessions (Бен Луин, Драма, 2012) [BDRip-AVC, Профессиональны ...
  • Побег / Flukt (Роар Утхауг, боевик, 2012) [DVDRip-AVC, Любительский (одного ...
  • Чемпионат Англии 2012-2013 / 25-й тур / Обзор / Суббота / BBC Sport [2013 г ...
  • Челюсти 3D / Shark Night 3D ( Дэвид Р. Эллис, ужасы, 2011) [BDRip-AVC, Проф ...
  • Полководцы / Tau ming chong (Питер Чан, Вэй мэн Йип, боевик, драма, военный ...
  • ДухLess (Роман Прыгунов, Драма, 2012) [BDRip-AVC, Не требуется]
  • ДухLess (Роман Прыгунов, драма, 2012) [BDRip-AVC, Оригинал]
  • ДухLess (Роман Прыгунов, драма, 2012) [HDRip-AVC, Не требуется]
  • Эд Вуд / Ed Wood (Тим Бёртон, драма, комедия, биография, 1994) [BDRip-AVC, ...
  • Любовь с акцентом (Резо Гигинеишвили, Комедия, приключения, 2012) [BDRip-AV ...
  • Облачный атлас / Cloud Atlas (Лана Вачовски, Том Тыквер, Энди Вачовски, фан ...
  • День учителя (Сергей Мокрицкий, драма, 2012) [DVDRip-AVC, Не требуется]
  • Рейдер (Всеволод Аравин, драма, криминал, 2011) [BDRip 720p, оригинал]
  • ДухLess (Роман Прыгунов, Драма, 2012) [BDRip 720p, Не требуется]
  • ДухLess (Роман Прыгунов, Драма, 2012) [320x240] [DVDRip, Не требуется]
  • ДухLess (Роман Прыгунов, Драма, 2012) [DVD5, Не требуется]
  • ДухLess (Роман Прыгунов, драма, 2012) [Blu-Ray Disc [RUS], не требуется]
  • ДухLess (Роман Прыгунов, Драма, 2012) [BDRip, Не требуется]
  • ДухLess (Роман Прыгунов, Драма, 2012) [HDRip, Не требуется]
  • Информация
    Посетители, находящиеся в группе Гости, не могут оставлять комментарии к данной публикации.