вход на сайт

Имя пользователя :
Пароль :

Восстановление пароля Регистрация
Семь жизней / Seven Pounds (Габриэле Муччино, Драма, 2008) [BDRip - AVC, Дубляж, Украинский, Оригинал, Sub]
Рейтинг:
(голосов: 1)



[img]{THEME}/images/logopost.png[/img]



Семь жизней / Seven Pounds
«Они не знакомы. У них разные судьбы. Но у них одна тайна.»

Год выпуска: 2008
Страна: США
Производство: Columbia Pictures, Escape Artists, Overbrook Entertainment, Relativity Media
Жанр: Драма

Режиссёр: Габриэле Муччино / Gabriele Muccino
В ролях: Уилл Смит, Розарио Доусон, Вуди Харрельсон, Майкл Или, Бэрри Пеппер, Элпидия Каррильо, Робин Ли, Джо Нуньес, Билл Смитрович, Тим Келлехер

Перевод: Дубляж, Украинский, Оригинал (английский)
Субтитры: Русский, английский (2 вида), эстонский, литовский, украинский

Описание: Пытаясь исправить ошибки прошлого, инженер Тим, который выдает себя за налогового инспектора с помощью удостоверения брата, отправляется в необычное путешествие в искупление фатального поступка своей жизни. В ходе своей поездки он встречает семерых незнакомцев, включая смертельно больную Эмили, которая называет себя девушкой с подбитыми крыльями. Тим неожиданно влюбляется в нее, что сильно усложняет его первоначальный план. Сможет ли он разгадать послание судьбы?





Качество: BDRip-AVC
Продолжительность: 02:03:05 час.

Формат: MKV
Видео кодек: x264
Аудио кодек: AC3
Видео: 1152x480 (2.40:1), 23.976 fps, AVC, ~2227 kbps avg, 0.168 bit/pixel
Аудио #1: 48 kHz, AC3 Dolby Digital, 3/2 (L,C,R,l,r) + LFE ch, ~384.00 kbps avg | Дубляж
Аудио #2: 48 kHz, AC3 Dolby Digital, 3/2 (L,C,R,l,r) + LFE ch, ~384.00 kbps avg | Украинский
Аудио #3: 48 kHz, AC3 Dolby Digital, 3/2 (L,C,R,l,r) + LFE ch, ~384.00 kbps avg | Оригинал


Дата премьеры (мир): 19 декабря 2008
Дата премьеры (РФ): 15 января 2009, «BVSPR Sony»

MediaInfo ▼TextПолное имя : D:Sem.Zhiznei.2008.BDRip-AVC.mkv
Формат : Matroska
Версия формата : Version 2
Размер файла : 2,94 Гбайт
Продолжительность : 2 ч. 3 м.
Общий поток : 3422 Кбит/сек
Название фильма : Rip by Lelya_K for NNM-Club
Дата кодирования : UTC 2012-06-19 17:35:15
Программа кодирования : mkvmerge v5.6.0 (Kenya Kane) built on May 27 2012 16:44:04
Библиотека кодирования : libebml v1.2.3 + libmatroska v1.3.0

Видео
Идентификатор : 1
Формат : AVC
Формат/Информация : Advanced Video Codec
Профиль формата : [email protected]
Параметр CABAC формата : Да
Параметр ReFrames формата : 15 кадров
Идентификатор кодека : V_MPEG4/ISO/AVC
Продолжительность : 2 ч. 3 м.
Битрейт : 2227 Кбит/сек
Ширина : 1152 пикселя
Высота : 480 пикселей
Соотношение сторон : 2,40:1
Частота кадров : 23,976 кадра/сек
Цветовое пространство : YUV
Субдискретизация насыщенности : 4:2:0
Битовая глубина : 8 бит
Тип развёртки : Прогрессивная
Бит/(Пиксели*Кадры) : 0.168
Размер потока : 1,89 Гбайт (64%)
Заголовок : Семь.жизней-Seven.Pounds.(2008).[H.264].BDRip
Библиотека кодирования : x264 core 116 r2044 392e762
Настройки программы : cabac=1 / ref=15 / deblock=1:0:0 / analyse=0x3:0x133 / me=umh / subme=11 / psy=1 / psy_rd=1.00:0.00 / mixed_ref=0 / me_range=48 / chroma_me=1 / trellis=2 / 8x8dct=1 / cqm=0 / deadzone=21,11 / fast_pskip=1 / chroma_qp_offset=-2 / threads=12 / sliced_threads=0 / nr=0 / decimate=1 / interlaced=0 / bluray_compat=0 / constrained_intra=0 / bframes=10 / b_pyramid=2 / b_adapt=2 / b_bias=0 / direct=3 / weightb=1 / open_gop=0 / weightp=2 / keyint=250 / keyint_min=23 / scenecut=40 / intra_refresh=0 / rc_lookahead=60 / rc=2pass / mbtree=1 / bitrate=2227 / ratetol=1.0 / qcomp=0.60 / qpmin=0 / qpmax=69 / qpstep=4 / cplxblur=20.0 / qblur=0.5 / ip_ratio=1.40 / aq=1:1.00
Язык : English
Default : Да
Forced : Нет

Аудио #1
Идентификатор : 2
Формат : AC-3
Формат/Информация : Audio Coding 3
Расширение режима : CM (complete main)
Параметр Endianness формата : Big
Идентификатор кодека : A_AC3
Продолжительность : 2 ч. 3 м.
Вид битрейта : Постоянный
Битрейт : 384 Кбит/сек
Каналы : 6 каналов
Расположение каналов : Front: L C R, Side: L R, LFE
Частота : 48,0 КГц
Битовая глубина : 16 бит
Метод сжатия : С потерями
Размер потока : 338 Мбайт (11%)
Заголовок : Dub
Язык : Russian
Default : Да
Forced : Нет

Аудио #2
Идентификатор : 3
Формат : AC-3
Формат/Информация : Audio Co
e9f3770c31df2ad0d6518081cf1db44d8e598142Семь жизней / Seven Pounds (Габриэле Муччино, Драма, 2008) [BDRip - AVC, Дубляж, Украинский, Оригинал, Sub] Семь жизней / Seven Pounds (Габриэле Муччино, Драма, 2008) [BDRip - AVC, Дубляж, Украинский, Оригинал, Sub] " />

Аплоадер: Админ, дата: 30-10-2012, 18:28, торрент скачан: 359 раз

Понравилась раздача? Посмотрите эти:
  • Семь жизней / Seven Pounds (Габриэле Муччино, драма, 2008) [HDRip-AVC, Дубл ...
  • Никто не выжил / No One Lives (Рюхэй Китамура, Триллер, ужасы, 2012) [BDRip ...
  • Ворон / The Raven (Джеймс МакТиг, Триллер, детектив, 2012) [BDRip 1080p, Ду ...
  • Толстяк на ринге / Here Comes the Boom (Фрэнк Корачи, Боевик, комедия, 2012 ...
  • Суррогат / The Sessions (Бен Луин, Драма, 2012) [BDRip-AVC, Профессиональны ...
  • Семь жизней / Seven Pounds (Габриэль Муччино, драма, 2008) [BDRip-AVC, Дубл ...
  • Семь жизней (7 жизней) / Seven Pounds (Габриэле Муччино, Драма, 2008) [BDRi ...
  • Семь жизней / Seven Pounds (Габриэле Муччино, Драма, 2008) [BDRip - AVC, Ду ...
  • Золото дураков / Fools Gold (Энди Теннант, Мелодрама, комедия, приключения, ...
  • Четыре Рождества / Four Christmases (Сет Гордон, Драма, мелодрама, комедия, ...
  • Семь жизней / Seven Pounds (Габриэле Муччино, Драма, 2008) [Blu-ray Disc [E ...
  • Семь жизней / Seven Pounds (Габриэле Муччино, Драма, 2008) [BDRip, Дубляж] ...
  • Семь жизней (7 жизней) / Seven Pounds (Габриэле Муччино / Уилл Смит, Драма, ...
  • Семь жизней / Seven Pounds (Уилл Смит, Габриэле Муччино,Драма,2008) [DVDRip ...
  • Семь жизней / Seven Pounds (Габриэле Муччино, драма, 2008) [DVDRip, Професс ...
  • Семь жизней / Seven Pounds (Габриэле Муччино / Gabriele Muccino, драма, 200 ...
  • Семь жизней / Seven Pounds (Габриэле Муччино / Gabriele Muccino, Драма, 200 ...
  • Семь жизней / Seven Pounds (Габриэль Муччино, драма, 2008) [BDRip 720p, Дуб ...
  • Семь жизней / Seven Pounds (Габриэле Муччино, драма, 2008) [DVDRip, Професс ...
  • Семь жизней / Seven Pounds (Габриэле Муччино, Драма, 2008) [BDRip, Дубляж]
  • Информация
    Посетители, находящиеся в группе Гости, не могут оставлять комментарии к данной публикации.