вход на сайт

Имя пользователя :
Пароль :

Восстановление пароля Регистрация
Доля ангелов / The Angels Share (Кен Лоуч, драма, комедия, 2012) [HDRip, Профессиональный (многоголосый закадровый)]
Рейтинг:
(голосов: 1)



[img]{THEME}/images/logopost.png[/img]



Доля ангелов / The Angels Share

Год выпуска: 2012
Страна: Великобритания, Франция, Бельгия, Италия
Производство: Entertainment One, Sixteen Films, Why Not Productions
Жанр: драма, комедия

Режиссёр: Кен Лоуч
В ролях: Пол Брэнниган, Джон Хеншоу, Гари Мейтленд, Жасмин Риггинс, Уильям Руэйн, Роджер Аллам, Шиван Рейли, Чойе Бэй, Пол Бирчард, Джеймс Кэйси

Перевод: Профессиональный (многоголосый закадровый)
Субтитры: нет

Описание:Глазго. Молодой отец семейства Робби хочет навсегда расстаться со своим криминальным прошлым, но у него ничего не получается. В очередном деле Робби удается избежать тюрьмы, но его отправляют на принудительные работы. Ему и его новым товарищам Рино, Альберту и Мо назначают наставника Гарри, который втайне обучает их искусству дегустации виски.



Качество: HDRip | Сэмпл
Продолжительность: 01:41:04

Формат: AVI
Видео кодек: XviD
Аудио кодек: AC3
Видео: 720x384 (1.85:1), 23.976 fps, XviD MPEG-4 ~1 735 kbs avg, 0.262 bit/p
Аудио: 48.0 KHz, AC3, 2 ch, 192 Кбит/с

Дата премьеры (мир): 22 мая 2012
Дата премьеры (РФ): 27 сентября 2012, «Русский репортаж»

"Media Info" ▼
TextGeneral
Format : AVI
Format/Info : Audio Video Interleave
File size : 1.37 GiB
Duration : 1h 41mn
Overall bit rate : 1 936 Kbps
Writing application : VirtualDubMod 1.5.10.2 (build 2540/release)
Writing library : VirtualDubMod build 2540/release
Video #0
ID : 0
Format : MPEG-4 Visual
Format profile : Advanced [email protected]
Format settings, BVOP : 2
Format settings, QPel : No
Format settings, GMC : No warppoints
Format settings, Matrix : Default (MPEG)
Muxing mode : Packed bitstream
Codec ID : XVID
Codec ID/Hint : XviD
Duration : 1h 41mn
Bit rate : 1 735 Kbps
Width : 720 pixels
Height : 384 pixels
Display aspect ratio : 1.85:1
Frame rate : 23.976 fps
Color space : YUV
Chroma subsampling : 4:2:0
Bit depth : 8 bits
Scan type : Progressive
Compression mode : Lossy
Bits/(Pixel*Frame) : 0.262
Stream size : 1.22 GiB (90%)
Writing library : XviD 1.2.1 (UTC 2008-12-04)
Audio #1
ID : 1
Format : AC-3
Format/Info : Audio Coding 3
Mode extension : CM (complete main)
Format settings, Endianness : Big
Codec ID : 2000
Duration : 1h 41mn
Bit rate mode : Constant
Bit rate : 192 Kbps
Channel(s) : 2 channels
Channel positions : Front: L R
Sampling rate : 48.0 KHz
Bit depth : 16 bits
Compression mode : Lossy
Stream size : 139 MiB (10%)
Alignment : Split accross interleaves
Interleave, duration : 42 ms (1.00 video frame)
Interleave, preload duration : 500 ms


080c97547e2ebf56b8604124209def33a16b00f4Доля ангелов / The Angels Share (Кен Лоуч, драма, комедия, 2012) [HDRip, Профессиональный (многоголосый закадровый)] Доля ангелов / The Angels Share (Кен Лоуч, драма, комедия, 2012) [HDRip, Профессиональный (многоголосый закадровый)] " />

Аплоадер: Админ, дата: 24-10-2012, 02:52, торрент скачан: 359 раз

Понравилась раздача? Посмотрите эти:
  • Погнали! / Getaway (Кортни Соломон, Боевик, Криминал, 2013) [HDRip, Професс ...
  • Верное дельце / Une pure affaire (Александр Коффре, Боевик, Комедия, Кримин ...
  • Мои герои / Mes heros (Эрик Беснард, комедия, 2012) [HDRip, Профессиональны ...
  • Мужество / Wymyk (Грег Зглински, драма, 2011) [DVDRip, Любительский (одного ...
  • 42 / 42 (Брайан Хелгеленд, драма, биография, спорт, 2013) [BDRip, Профессио ...
  • Ночь тамплиера / Night of the Templar (Пол Сэмпсон, Ужасы, фантастика, боев ...
  • Сломленные / Broken (Руфус Норрис, драма, 2012) [HDRip, Профессиональный (м ...
  • Звук моего голоса / Sound of My Voice (Зал Батманглидж, триллер, драма, 201 ...
  • Слепой поворот / Blind Turn (Роберт Орр, Триллер, драма, детектив, 2012) [W ...
  • 23:59 / 23:59 (Гилберт Чан, Ужасы, 2011) [HDRip, Любительский (одноголосый ...
  • Безопасность не гарантируется / Safety Not Guaranteed (Колин Треворроу, фан ...
  • В хлам / Smashed (Джеймс Понсольдт, Драма, комедия, 2012) [HDRip, Профессио ...
  • Суперстар / Superstar (Ксавье Джианноли, Драма, комедия, 2012) [HDRip, Проф ...
  • Простые истины / Straight As (Джеймс Кокс, драма, комедия, 2013) [HDRip, П ...
  • Плохая актриса / Bad Actress (Роберт Ли Кинг, комедия, 2011) [DVDRip, Профе ...
  • Доля ангелов / The Angels Share (Кен Лоуч, Драма, комедия, 2012) [HDRip, Пр ...
  • Доля ангелов / The Angels Share (Кен Лоуч, Драма, комедия, 2012) [HDRip-AVC ...
  • Супер циклон / Super Cyclone (Лиз Адамс / Liz Adams, боевик, 2012) [HDRip, ...
  • Захват / Carjacked (Джон Бонито, триллер, 2011)[BDRip, Профессиональный (мн ...
  • Доля ангелов / The Angels Share (Кен Лоуч, Драма, комедия, 2012) [BDRip 720 ...
  • Tank Feat. T.I. & Kris Stephens / Compliments [2012, RnB,Hip-Hop, HDRip]
  • Супершторм в Сиэтле / Seattle Superstorm (Джейсон Бурк, фантастика, боевик ...
  • Три балбеса / The Three Stooges (Бобби Фаррелли, Питер Фаррелли, Комедия, 2 ...
  • Девушки в опасности / Damsels in Distress (Уит Стиллман, драма, мелодрама, ...
  • Глаз шторма / The Eye of the Storm (Фред Скеписи, Драма, 2011) [HDRip, Проф ...
  • Информация
    Посетители, находящиеся в группе Гости, не могут оставлять комментарии к данной публикации.