вход на сайт

Имя пользователя :
Пароль :

Восстановление пароля Регистрация
Жутко громко и запредельно близко / Extremely Loud & Incredibly Close (Стивен Долдри, драма, детектив, приключения, 2011) [BDRip-AVC, Профессиональный (многоголосый закадровый) + SUB]
Рейтинг:
(голосов: 1)



[img]{THEME}/images/logopost.png[/img]



Жутко громко и запредельно близко / Extremely Loud & Incredibly Close
-

Год выпуска: 2011
Страна: США
Производство: Paramount Pictures, Scott Rudin Productions, Warner Bros. Pictures
Жанр: драма, детектив, приключения

Режиссёр: Стивен Долдри | Stephen Daldry
В ролях: Томас Хорн (Oskar Schell), Сандра Буллок (Linda Schell), Виола Дэвис (Abby Black), Том Хэнкс (Thomas Schell), Макс фон Сюдов (The Renter), Джон Гудмен (Stan the Doorman), Джеффри Райт (William Black), Зои Колдуэлл (Oskars Grandmother), Дэннис Хирн (Minister), Пол Клементовиц (Homeless Man)

Перевод: Профессиональный (многоголосый закадровый) - R5
Субтитры: softsub (SRT) | русские (forsed), русские английские

Описание:
Десятилетний Оскар теряет отца в день атаки на башни-близнецы в Нью-Йорке. По всему городу Оскар ищет информацию, которая должна привести его к разрешению загадки отца. На пути мальчику встретятся разные люди, но их всех объединяет страшная катастрофа, поэтому каждый пытается справиться с собственным горем.Дата премьеры (мир): 25 декабря 2011
Релиз на DVD: 26 июля 2012, «CP Дистрибуция»
Релиз на Blu-Ray: 26 июля 2012, «CP Дистрибуция»
Автор Рипа - lankano
Качество: BDRip - AVC | исх. Жутко громко и запредельно близко / Extremely Loud & Incredibly Close (2011) Blu-ray CEE 1080p AVC DD5.1-DVDSEED
Продолжительность: 02:09:29

Формат: MKV
Видео кодек: H.264
Аудио кодек: AC3
Видео: 1008x420 (2.40:1), 23,976 fps, H.264 ~1 224 kbps avg, 0.121 bit/pixel
Аудио: 48 kHz, AC3, 3/2 (L,C,R,l,r) + LFE ch, ~384.00 kbps avg | Профессиональный (многоголосый закадровый) - R5
MediaInfo ▼General
Unique ID : 203936926544837839800329341913435527007 (0x996CD2C7B6E4C629BBDA9D914BD8D75F)
Complete name : D:hutko.Gromko.I.Zapredelno.Blizko.2011.BDRip-AVC.mkv
Format : Matroska
Format version : Version 2
File size : 1.46 GiB
Duration : 2h 9mn
Overall bit rate mode : Variable
Overall bit rate : 1 612 Kbps
Encoded date : UTC 2012-10-03 16:23:22
Writing application : mkvmerge v5.0.1 (Es ist Sommer) built on Oct 24 2011 19:45:06
Writing library : libebml v1.2.2 + libmatroska v1.3.0
Video
ID : 1
Format : AVC
Format/Info : Advanced Video Codec
Format profile : [email protected]
Format settings, CABAC : Yes
Format settings, ReFrames : 10 frames
Codec ID : V_MPEG4/ISO/AVC
Duration : 2h 9mn
Bit rate mode : Variable
Bit rate : 1 224 Kbps
Maximum bit rate : 40.0 Mbps
Width : 1 008 pixels
Height : 420 pixels
Display aspect ratio : 2.40:1
Frame rate : 23.976 fps
Color space : YUV
Chroma subsampling : 4:2:0
Bit depth : 8 bits
Scan type : Progressive
Bits/(Pixel*Frame) : 0.121
Stream size : 1.08 GiB (74%)
Writing library : x264 core 125 r2200 999b753
Encoding settings : cabac=1 / ref=10 / deblock=1:-2:-1 / analyse=0x3:0x113 / me=umh / subme=11 / psy=1 / psy_rd=1.00:0.05 / mixed_ref=1 / me_range=32 / chroma_me=1 / trellis=2 / 8x8dct=1 / cqm=0 / deadzone=21,11 / fast_pskip=0 / chroma_qp_offset=-3 / threads=6 / lookahead_threads=1 / sliced_threads=0 / nr=0 / decimate=1 / interlaced=0 / bluray_compat=0 / constrained_intra=0 / bframes=11 / b_pyramid=2 / b_adapt=2 / b_bias=0 / direct=3 / weightb=1 / open_gop=0 / weightp=2 / keyint=240 / keyint_min=24 / scenecut=40 / intra_refresh=0 / rc=2pass / mbtree=0 / bitrate=1224 / ratetol=1.0 / qcomp=0.70 / qpmin=10 / qpmax=51 / qpstep=4 / cplxblur=20.0 / qblur=0.5 / ip_ratio=1.40 / pb_ratio=1.30 / aq=1:1.0
Audio
ID : 2
Format : AC-3
Format/Info : Audio Coding 3
Mode extension : CM (complete main)
Codec ID : A_AC3
Duration : 2h 9mn
Bit rate mode : Constant
Bit rate : 384 Kbps
Channel(s) : 6 channels
Channel positions : Front: L C R, Side: L R, LFE
Sampling rate : 48.0 KHz
Bit depth : 16 bits
Compression mode : Lossy
Stream size : 356 MiB (24%)
Title : MVO R5
Language : Russian
Text #1
ID : 3
Format : UTF-8
Codec ID : S_TEXT/UTF8
Codec ID/Info : UTF-8 Plain Text
Title : Forced
Language : Russian
Text #2
ID : 4
Format : UTF-8
Codec ID
c548c876751daf3e3241c7c687a182e24e8be710Жутко громко и запредельно близко / Extremely Loud & Incredibly Close (Стивен Долдри, драма, детектив, приключения, 2011) [BDRip-AVC, Профессиональный (многоголосый закадровый) + SUB] Жутко громко и запредельно близко / Extremely Loud & Incredibly Close (Стивен Долдри, драма, детектив, приключения, 2011) [BDRip-AVC, Профессиональный (многоголосый закадровый) + SUB] " />

Аплоадер: Админ, дата: 13-10-2012, 15:52, торрент скачан: 359 раз

Понравилась раздача? Посмотрите эти:
  • Смерть на похоронах / Death at a Funeral (Нил ЛаБут, комедия, 2010) [BDRip ...
  • Гость / The Caller (Мэттью Паркхилл, триллер, детектив, 2011) [BDRip 720p, ...
  • Бессмертные души / Soul Survivors (Стивен Карпентер, ужасы, триллер, драма, ...
  • Суррогат / The Sessions (Бен Луин, драма, 2012) [BDRip 720p, Профессиональн ...
  • Убить по расписанию / Ticking Clock (Эрни Барбараш, фантастика, боевик, три ...
  • Хранитель времени / Hugo (Мартин Скорсезе, Драма, 2011) [BDRip-AVC, Професс ...
  • Мартовские иды / The Ides of March (Джордж Клуни / George Clooney, драма, 2 ...
  • Жутко громко и запредельно близко / Extremely Loud & Incredibly Close (Стив ...
  • Похищенная / A Lonely Place to Die (Джулиан Джилби, триллер, криминал, прик ...
  • Поворот не туда 4 / Wrong Turn 4 (Деклан О’Брайэн, ужасы, боевик, детектив, ...
  • Жутко громко и запредельно близко / Extremely Loud & Incredibly Close (Стив ...
  • Пятница 13-е / Friday the 13th (Шон С. Каннингэм, ужасы, триллер, детектив, ...
  • Рыжий пес / Red Dog (Крив Стендерс, драма, комедия, семейный, 2011) [BDRip ...
  • Похищенная / A Lonely Place to Die (Джулиан Джилби, триллер, криминал, прик ...
  • Люди как мы / People Like Us (Алекс Куртцман, Драма, 2012) [BDRip 1080p, Пр ...
  • Mylene Farmer / Du Temps [2011, Pop, HDTVRip]
  • Mylene Farmer / Bleu Noir [2011, Pop, HDTVRip]
  • Д. С. Фоер. Жутко громко & запредельно близко / Jonathan Safran Foer. Extre ...
  • Хостел 3 / Hostel: Part III (Скотт Спигел / Scott Spiegel, ужасы, триллер, ...
  • Футбольные гладиаторы / Ушедшее время / Awaydays (Пэт Холден, драма, кримин ...
  • (2012) Alexandre Desplat / Жутко громко и запредельно близко / Extremely Lo ...
  • Жутко громко и запредельно близко / Extremely Loud & Incredibly Close (Стив ...
  • Жутко громко и запредельно близко / Extremely Loud & Incredibly Close (Стив ...
  • Жутко громко и запредельно близко / Extremely Loud & Incredibly Close (Стив ...
  • [iPhone, iPod] Жутко громко и запредельно близко / Extremely Loud & Incredi ...
  • Информация
    Посетители, находящиеся в группе Гости, не могут оставлять комментарии к данной публикации.