вход на сайт

Имя пользователя :
Пароль :

Восстановление пароля Регистрация
Цветы войны / Jin líng shí san chai (Чжан Имоу, драма, военный, история, 2011) [BDRip-AVC, Дубляж, Оригинал]
Рейтинг:
(голосов: 1)



[img]{THEME}/images/logopost.png[/img]



Цветы войны / Jin líng shí san chai

Год выпуска: 2011
Страна: КитайГонконг
Производство:New Pictures
Жанр: Драма, военный, история

Режиссёр: Чжан Имоу
В ролях: Кристиан Бэйл, Ни Ни, Синю Чжан, Тяньюань Хуанг, Хань Ситин, Дуду Чжан, Тун Давэй, Ацуро Ватабэ, Цао Кэфань, Юань Яньчунци

Перевод: Дубляж, Оригинал
Примечание: Не хватает около 20 секунд перевода!
Субтитры: Отсутствуют

Описание: Фильм основан на реальных событиях. Действия разворачиваются в период японо-китайской войны. Главный герой, американский гробовщик Джон, направляется в Католическую церковь в Нанкине, чтобы подготовить священника к похоронам. По прибытию он оказывается единственным мужчиной среди учениц монастыря и проституток из соседнего борделя в эпицентре военных действий. Оказавшись в таком положении, он выдаёт себя за священника и пытается спасти обе группы от ужасов вторжения японской армии…

Качество: BDRip-AVC
Продолжительность:02:25:59 час.


Формат: MKV
Видео кодек: x264
Аудио кодек: AC3
Видео: 1024x432(2.40:1), 24.000 fps, x264 ~2 087 kbps avg, 0.197 bit/pixel
Аудио#1: 48 kHz, AC3 Dolby Digital, 3/2 (L,C,R,l,r) + LFE ch, ~384 kbps (Дубляж)
Аудио#2: 48 kHz, AC3 Dolby Digital, 3/2 (L,C,R,l,r) + LFE ch, ~384 kbps (Оригинал)

Дата премьеры (мир): 16 декабря 2011
Дата премьеры (РФ): 2 августа 2012, «Люксор»

MediaInfo ▼General
Unique ID : 179599717753994198894218113349529727596 (0x871DA5BECC33CD1BA0CCCED91875726C)
Complete name : O:Jolly RogerJin.lнng.shн.san.chai.2011.H264.BDRip-AVC.JRG.mkv
Format : Matroska
Format version : Version 2
File size : 2.91 GiB
Duration : 2h 25mn
Overall bit rate : 2 857 Kbps
Movie name : Jin lнng shн san chai (2011) - The Jolly Roger by СПАМ [zyyx]
Encoded date : UTC 2012-09-08 09:42:28
Writing application : mkvmerge v5.6.0 (Kenya Kane) built on Jun 29 2012 15:01:44
Writing library : libebml v1.2.3 libmatroska v1.3.0

Video
ID : 1
Format : AVC
Format/Info : Advanced Video Codec
Format profile : [email protected]
Format settings, CABAC : Yes
Format settings, ReFrames : 16 frames
Codec ID : V_MPEG4/ISO/AVC
Duration : 2h 25mn
Bit rate : 2 087 Kbps
Width : 1 024 pixels
Height : 432 pixels
Display aspect ratio : 2.40:1
Frame rate : 24.000 fps
Color space : YUV
Chroma subsampling : 4:2:0
Bit depth : 8 bits
Scan type : Progressive
Bits/(Pixel*Frame) : 0.197
Stream size : 2.07 GiB (71%)
Writing library : x264 core 125 r2200 999b753
Encoding settings : cabac=1 / ref=16 / deblock=1:-1:-1 / analyse=0x3:0x133 / me=umh / subme=11 / psy=1 / psy_rd=1.00:0.10 / mixed_ref=1 / me_range=64 / chroma_me=1 / trellis=2 / 8x8dct=1 / cqm=0 / deadzone=21,11 / fast_pskip=0 / chroma_qp_offset=-3 / threads=32 / lookahead_threads=5 / sliced_threads=0 / nr=0 / decimate=1 / interlaced=0 / bluray_compat=0 / constrained_intra=0 / bframes=16 / b_pyramid=2 / b_adapt=2 / b_bias=0 / direct=3 / weightb=1 / open_gop=0 / weightp=2 / keyint=250 / keyint_min=23 / scenecut=40 / intra_refresh=0 / rc_lookahead=50 / rc=2pass / mbtree=1 / bitrate=2087 / ratetol=1.0 / qcomp=0.70 / qpmin=0 / qpmax=69 / qpstep=4 / cplxblur=20.0 / qblur=0.5 / ip_ratio=1.40 / aq=1:1.00
Language : English
Default : Yes
Forced : No

Audio #1
ID : 2
Format : AC-3
Format/Info : Audio Coding 3
Mode extension : CM (complete main)
Format settings, Endianness : Big
Codec ID : A_AC3
Duration : 2h 25mn
Bit rate mode : Constant
Bit rate : 384 Kbps
Channel(s) : 6 channels
Channel positions : Front: L C R, Side: L R, LFE
Sampling rate : 48.0 KHz
Bit depth : 16 bits
Compression mode : Lossy
Stream size : 401 MiB (13%)
Language : Russian
Default : Yes
Forced : No

Audio #2
ID : 3
Format : AC-3
Format/Info : Audio Coding 3
Mode extension : CM (complete main)
Format settings, Endianness : Big
Codec ID : A_AC3
Duration : 2h 25mn
Bit rate mode : Constant
Bit rate : 384 Kbps
Channel(s) : 6 channels
Channel positions : Front: L C R, Side: L R, LFE
Sampling rate : 48.0 KHz
Bit depth
bb908668ee82f6b4a94bcc3f725038734f76cb8dЦветы войны / Jin líng shí san chai (Чжан Имоу, драма, военный, история, 2011) [BDRip-AVC, Дубляж, Оригинал] Цветы войны / Jin líng shí san chai (Чжан Имоу, драма, военный, история, 2011) [BDRip-AVC, Дубляж, Оригинал] " />

Аплоадер: Админ, дата: 9-09-2012, 16:52, торрент скачан: 359 раз

Понравилась раздача? Посмотрите эти:
  • Цветы войны / The Flowers of War / Jin lнng shн san chai (Чжан Имоу, драма, ...
  • Инопланетянин / E.T. the Extra-Terrestrial (Стивен Спилберг, Фантастика, фэ ...
  • Железный Кулак [Театральная версия] / The Man with the Iron Fists [Theatric ...
  • Падение последней империи: 1911 / Xinhai geming: 1911 (Чжан Ли, Джеки Чан, ...
  • Черный дрозд / Deadfall (Штефан Руцовицки, Триллер, драма, криминал, 2012) ...
  • Боевой конь / War Horse (Стивен Спилберг, драма, военный, 2011) [BDRip-AVC, ...
  • Черное золото / Black Gold (Жан-Жак Анно, Драма, 2011) [BDRip-AVC, Професси ...
  • Цветы войны / Jin líng shí san chai / The Flowers of War (Чжан Имоу / Zhang ...
  • Цветы войны / The Flowers of War / Jin líng shí san chai (Чжан Имоу, драма, ...
  • Центурион / Centurion (Нил Маршалл / Neil Marshall, Боевик, триллер, драма, ...
  • Патруль / End of Watch (Дэвид Эйр, Триллер, драма, криминал, 2012) [BDRip-A ...
  • Странная жизнь Тимоти Грина / The Odd Life of Timothy Green (Питер Хеджес, ...
  • Закон доблести / Act of Valor (Майк МакКой, Скотт Во, боевик, триллер, прик ...
  • «Весёлые» каникулы / Get the Gringo (Адриан Грюнберг, Боевик, комедия, 2012 ...
  • Ворон / The Raven (Джеймс МакТиг, Триллер, детектив, 2012) [BDRip 720p, Дуб ...
  • Цветы войны / Jin líng shí san chai (Чжан Имоу, драма, военный, история, 20 ...
  • Цветы войны / Jin líng shí san chai (Чжан Имоу, драма, военный, история, 20 ...
  • Цветы войны / Jin ling shi san chai (Чжан Имоу, Драма, военный, история, 20 ...
  • Супер Майк / Magic Mike (Стивен Содерберг, Драма, комедия, 2012) [BDRip 720 ...
  • На Дороге / On The Road (Уолтер Саллес, Драма, приключения, 2012) [BDRip 72 ...
  • Mylene Farmer / Du Temps [2011, Pop, HDTVRip]
  • Цветы войны / Jin líng shí san chai (Чжан Имоу, драма, военный, история, 20 ...
  • Цветы войны / Jin líng shí san chai (Чжан Имоу, драма, военный, история, 20 ...
  • Цветы войны / Jin líng shí san chai (Чжан Имоу, драма, военный, история, 20 ...
  • Цветы войны / Jin líng shí san chai (Чжан Имоу, драма, военный, история, 20 ...
  • Информация
    Посетители, находящиеся в группе Гости, не могут оставлять комментарии к данной публикации.