вход на сайт

Имя пользователя :
Пароль :

Восстановление пароля Регистрация
Чужие (Юрий Грымов, драма, 2008) [BDRip-AVC, не требуется]
Рейтинг:
(голосов: 1)



[img]{THEME}/images/logopost.png[/img]



«Чужие»

««...ты сыта и неопасна...»»


¤ Год выпуска: 2008
¤ Страна:РоссияСШАЕгипет
¤ Производство: Studio YuG
¤ Жанр: драма

¤ Режиссёр: Юрий Грымов / Yuri Grymov
¤ В ролях: Скарлетт МакАлистер, Виктор Бычков, Алексей Полуян, Кэтлин Гати, Артем Федотов, Денис Нагретдинов, Александр Давыдов, Юрий Яфаев, Иван Смирнов

¤ Перевод: не требуется
¤ Субтитры: нет


Действие картины происходит в наши дни в зоне внутринационального конфликта. В горячую точку прибывает группа американских врачей с благотворительной миссией. Однако судьба готовит им такие испытания, когда придется рисковать не только своей карьерой…

Как из врача и любящего супруга превратиться в неистового убийцу? На какие поступки толкает собственное одиночество? Как противоестественная связь может стать нормой? Столкновение культур. Конфликт традиций и современной морали. Страх и осуждение, измена и безразличие, ревность и жестокость.

Герои фильма отражают сущность, настрой того общества, представителями которого они являются. Привить чужому миру свою мораль? Задача не из легких, потому что «своей» морали не бывает, мораль — она одна для всех.Возраст: 18+


¤ Качество: BDRip-AVC (источник: / Blu-ray Disc / 1080p)
¤ Продолжительность: ~ 01:40:46 часа

¤ Формат: Matroska-MKV-
¤ Видео кодек: AVC [email protected]
¤ Аудио кодек: Audio Coding 3
¤ Видео: 720x304 (2.35:1), 25,00 fps, AVC ~1491 kbps avg, 0.272 bit/pixel
¤ Аудио: 48 kHz, AC3 Dolby Digital, 3/2 (L,C,R,l,r) + LFE ch, ~448 kbps avg

MediaInfo ▼TextОбщее
Уникальный идентификатор : 218629849240024939314206562290871776879 (0xA47A93CC7A23EBDF8D5CF0E2E0EF366F)
Полное имя : D:DownloadsЧужие.2008.BDRip-AVC.mkv
Формат : Matroska
Версия формата : Version 1
Размер файла : 1,37 Гбайт
Продолжительность : 1 ч. 40 м.
Общий поток : 1942 Кбит/сек
Название фильма : Чужие (2008) [Rip by drundel]
Дата кодирования : UTC 2008-12-01 12:08:30
Программа кодирования : mkvmerge v2.4.0 (Fumbling Towards Ecstasy) built on Oct 11 2008 20:13:15
Библиотека кодирования : libebml v0.7.7 + libmatroska v0.8.1
Attachment : Yes

Видео
Идентификатор : 1
Формат : AVC
Формат/Информация : Advanced Video Codec
Профиль формата : [email protected]
Параметр CABAC формата : Да
Параметр ReFrames формата : 5 кадров
Идентификатор кодека : V_MPEG4/ISO/AVC
Продолжительность : 1 ч. 40 м.
Битрейт : 1491 Кбит/сек
Ширина : 720 пикселей
Высота : 304 пикселя
Соотношение сторон : 2,35:1
Частота кадров : 25,000 кадров/сек
Цветовое пространство : YUV
Субдискретизация насыщенности : 4:2:0
Битовая глубина : 8 бит
Тип развёртки : Прогрессивная
Бит/(Пиксели*Кадры) : 0.272
Размер потока : 1,02 Гбайт (75%)
Заголовок : x264: [720x304 / 25 fps / ~1491 kbps]
Библиотека кодирования : x264 core 65 r1042kVAQmod 5df2a71
Настройки программы : cabac=1 / ref=5 / deblock=1:-2:-1 / analyse=0x3:0x113 / me=umh / subme=7 / psy_rd=1.0:1.0 / mixed_ref=1 / me_range=16 / chroma_me=1 / trellis=2 / 8x8dct=1 / cqm=0 / deadzone=21,11 / chroma_qp_offset=-8 / threads=1 / thread_queue=1 / nr=0 / decimate=1 / mbaff=0 / bframes=3 / b_pyramid=1 / b_adapt=2 / b_bias=0 / direct=3 / wpredb=1 / keyint=250 / keyint_min=25 / scenecut=40 / rc=2pass / bitrate=1491 / ratetol=1.0 / qcomp=0.60 / qpmin=10 / qpmax=51 / qpstep=4 / cplxblur=20.0 / qblur=0.5 / ip_ratio=1.40 / pb_ratio=1.30 / aq=1:1.00:2:10.00 / zones=147094,151157,q=40
Язык : English
Default : Да
Forced : Нет

Аудио
Идентификатор : 2
Формат : AC-3
Формат/Информация : Audio Coding 3
Расширение режима : CM (complete main)
Идентификатор кодека : A_AC3
Продолжительность : 1 ч. 40 м.
Вид битрейта : Постоянный
Битрейт : 448 Кбит/сек
Каналы : 6 каналов
Расположение каналов : Front: L C R, Side: L R, LFE
Частота : 48,0 КГц
Битовая глубина : 16 бит
Метод сжатия : С потерями
Размер потока : 323 Мбайт (23%)
Заголовок : AC3: [6 ch / 48 kHz / ~44
417e2cb579e9433cd1cb71c5dc924487b55f8310Чужие (Юрий Грымов, драма, 2008) [BDRip-AVC, не требуется] Чужие (Юрий Грымов, драма, 2008) [BDRip-AVC, не требуется] " />

Аплоадер: Админ, дата: 8-09-2012, 10:01, торрент скачан: 359 раз

Понравилась раздача? Посмотрите эти:
  • Подглядывающий на кухне / Kick the Cock (Тинто Брасс, Эротика, короткометра ...
  • Джобс: Империя соблазна / jOBS (Джошуа Майкл Штерн, драма, биография, 2013) ...
  • Византия / Byzantium (Нил Джордан, Фэнтези, триллер, драма, 2012) [BDRip 10 ...
  • Интимные места (Наталья Меркулова, Алексей Чупов, драма, мелодрама, 2013) [ ...
  • Заклятие / The Conjuring (Джеймс Ван, ужасы, триллер, 2013) [BDRip 1080p, Д ...
  • Башня / The Tower (Чи-хун Ким, драма, 2012) [BDRip-AVC, Любительский (двухг ...
  • Фантомы / Shutter (Масаюки Очиай, ужасы, триллер, детектив, 2008) [BDRip-AV ...
  • Рикошет / Ricochet (Ник Гомез, драма, детектив, 2011) [BDRip-AVC, Профессио ...
  • Перелом / Fracture (Грегори Хоблит, Триллер, драма, криминал, детектив, 200 ...
  • Ворон / The Raven (Джеймс МакТиг, Триллер, детектив, 2012) [BDRip 1080p, Ду ...
  • Даю год / I Give It a Year (Дэн Мазер, мелодрама, комедия, 2012) [BDRip-AVC ...
  • Суррогат / The Sessions (Бен Луин, Драма, 2012) [BDRip-AVC, Профессиональны ...
  • Главное - не бояться! / A Little Bit of Heaven (Николь Кэссел / Nicole Kass ...
  • Драйв / Drive (Николас Виндинг Рёфн, боевик, триллер, драма, криминал, 2011 ...
  • Свадебный разгром / A Few Best Men (Стефан Эллиотт, комедия, 2011) [BDRip-A ...
  • Девчата (Юрий Чулюкин, мелодрама, комедия, 1961) [BDRip - AVC, Не требуется ...
  • Весна на Заречной улице (Феликс Миронер, Марлен Хуциев, мелодрама, 1956) [B ...
  • Приходите завтра (Евгений Ташков, мелодрама, комедия, 1963) [BDRip - AVC, Н ...
  • Эд Вуд / Ed Wood (Тим Бёртон, драма, комедия, биография, 1994) [BDRip-AVC, ...
  • Любовь с акцентом (Резо Гигинеишвили, Комедия, приключения, 2012) [BDRip-AV ...
  • Четыре Рождества / Four Christmases (Сет Гордон, Драма, мелодрама, комедия, ...
  • Белка: Не время для орехов / Scrat: No Time for Nuts (Крис Рено, Майк Труме ...
  • Заражение / Contagion (Стивен Содерберг, Фантастика, 2011) [BDRip 1080p, Пр ...
  • Лоракс: Серенада / The Lorax: Serenade (Кайл Балда, мультфильм, комедия, му ...
  • Невероятный Халк / The Incredible Hulk (Луи Летерье, фантастика, боевик, тр ...
  • Информация
    Посетители, находящиеся в группе Гости, не могут оставлять комментарии к данной публикации.