вход на сайт

Имя пользователя :
Пароль :

Восстановление пароля Регистрация
Королевство полной луны / Moonrise Kingdom (Уэс Андерсон, драма, комедия, 2012) [BDRip - AVC, Дублированный]
Рейтинг:
(голосов: 1)



[img]{THEME}/images/logopost.png[/img]



Королевство полной луны / Moonrise Kingdom
-

Год выпуска: 2012
Страна: США
Производство: American Empirical Pictures, Indian Paintbrush, Moonrise, Scott Rudin Productions
Жанр: драма, комедия

Режиссёр: Уэс Андерсон | Wes Anderson
В ролях: Брюс Уиллис, Эдвард Нортон, Билл Мюррей, Кара Хэйуорд, Джаред Гилман, Джейсон Шварцман, Тильда Суинтон, Фрэнсис МакДорманд, Харви Кейтель, Боб Бэлабан

Перевод: 1 - Профессиональный (полное дублирование)
Субтитры: Отсутствуют

Описание:
После таинственного исчезновения мальчишки и девчонки из лагеря бойскаутов принципиальный шериф ставит на уши весь город. Свое альтернативное расследование начинает тренер бойскаутов. Мамаша девушки бьется в истерике, а отец, кажется, что-то скрывает… Ведь у каждого в жизни бывает первая любовь.



Дата премьеры (мир): 16 мая 2012
Дата премьеры (РФ): 21 июня 2012, «Парадиз»
Релиз на DVD: 30 июля 2012, «Новый Диск»
Релиз на Blu-Ray: 6 августа 2012, «Новый Диск»

Качество: BDRip - AVC | Moonrise Kingdom.Blu-Ray Remux (1080p)
Продолжительность: 01:24:56 час.

Формат: MKV
Видео кодек: H.264
Аудио кодек: AC3
Видео: 1024х576 (16:9), 23.976 fps, H.264 ~2 811 kbps avg, 0.199 bit/pixel
Аудио #1: 48 kHz, AC3, 3/2 (L,C,R,l,r) + LFE ch, ~448.00 kbps avg | Профессиональный (полное дублирование)
MediaInfo ▼General
Complete name : K:Korolevstvo.Polnoi.luny.2012.x264.BDRip.(AVC).mkv
Format : Matroska
File size : 2.18 GiB
Duration : 1h 33mn
Overall bit rate : 3 325 Kbps
Movie name : = Rip= by =paravoz=
Encoded date : UTC 2012-08-04 12:16:12
Writing application : mkvmerge v4.6.0 (Still Crazy After All These Years) сборка от Apr 1 2011 21:01:49
Writing library : libebml v1.2.0 + libmatroska v1.1.0
Video #1
ID : 1
Format : AVC
Format/Info : Advanced Video Codec
Format profile : [email protected]
Format settings, CABAC : Yes
Format settings, ReFrames : 10 frames
Muxing mode : Container [email protected]
Codec ID : V_MPEG4/ISO/AVC
Duration : 1h 33mn
Bit rate : 2 811 Kbps
Nominal bit rate : 2 882 Kbps
Width : 1 024 pixels
Height : 576 pixels
Display aspect ratio : 16:9
Frame rate : 23.976 fps
Resolution : 8 bits
Colorimetry : 4:2:0
Scan type : Progressive
Bits/(Pixel*Frame) : 0.199
Stream size : 1.84 GiB (84%)
Title : Korolevstvo polnoi luny / Moonrise Kingdom
Writing library : x264 core 125 r2200 999b753
Encoding settings : cabac=1 / ref=10 / deblock=1:-3:-3 / analyse=0x3:0x133 / me=umh / subme=10 / psy=1 / psy_rd=1.00:0.10 / mixed_ref=1 / me_range=48 / chroma_me=1 / trellis=2 / 8x8dct=1 / cqm=0 / deadzone=21,11 / fast_pskip=0 / chroma_qp_offset=-3 / threads=6 / lookahead_threads=1 / sliced_threads=0 / nr=0 / decimate=1 / interlaced=0 / bluray_compat=0 / constrained_intra=0 / bframes=6 / b_pyramid=2 / b_adapt=2 / b_bias=0 / direct=3 / weightb=1 / open_gop=0 / weightp=2 / keyint=240 / keyint_min=22 / scenecut=40 / intra_refresh=0 / rc_lookahead=40 / rc=2pass / mbtree=1 / bitrate=2882 / ratetol=1.0 / qcomp=0.60 / qpmin=10 / qpmax=51 / qpstep=4 / cplxblur=20.0 / qblur=0.5 / ip_ratio=1.40 / aq=1:1.00
Audio #2
ID : 2
Format : AC-3
Format/Info : Audio Coding 3
Codec ID : A_AC3
Duration : 1h 33mn
Bit rate mode : Constant
Bit rate : 448 Kbps
Channel(s) : 6 channels
Channel positions : Front: L C R, Surround: L R, LFE
Sampling rate : 48.0 KHz
Stream size : 300 MiB (13%)
Title : DUB (MOSFILM Master)
Language : Russian





654f5c05306d7d9474121c30542927d866898a80Королевство полной луны / Moonrise Kingdom (Уэс Андерсон, драма, комедия, 2012) [BDRip - AVC, Дублированный] Королевство полной луны / Moonrise Kingdom (Уэс Андерсон, драма, комедия, 2012) [BDRip - AVC, Дублированный] " />

Аплоадер: Админ, дата: 4-08-2012, 20:06, торрент скачан: 359 раз

Понравилась раздача? Посмотрите эти:
  • FLO / NRG [2012, Pop, Dance, MasterRip]
  • Королевство полной луны / Moonrise Kingdom (Уэс Андерсон, Драма, мелодрама, ...
  • Жизнь Пи / Life Of Pi (Энг Ли, Драма, приключения, 2012) [BDRip 1080p, Проф ...
  • Хранитель времени / Hugo (Мартин Скорсезе, Драма, 2011) [BDRip-AVC, Професс ...
  • Хранитель времени / Hugo (Мартин Скорсезе, Драма, 2011) [BDRip-AVC, Професс ...
  • Схватка / The Grey (Джо Карнахан, боевик, триллер, драма, приключения, 2012 ...
  • 1+1 / Неприкасаемые / Intouchables (Оливье Накаш, Эрик Толедано, драма, ком ...
  • Уличные танцы 2 / StreetDance 2 (Макс Джива, Дания Пасквини, мелодрама, муз ...
  • Королевство полной луны / Moonrise Kingdom (Уэс Андерсон, Драма, комедия, 2 ...
  • Нефть / There Will Be Blood (Пол Томас Андерсон, драма, 2007) [BDRip-AVC, Д ...
  • Странная жизнь Тимоти Грина / The Odd Life of Timothy Green (Питер Хеджес, ...
  • Королевство полной луны / Moonrise Kingdom (Уэс Андерсон, Драма, мелодрама, ...
  • Звездный десант: Вторжение / Starship Troopers: Invasion (Синдзи Арамаки, м ...
  • Королевство полной луны / Moonrise Kingdom (Уэс Андерсон, Драма, комедия, 2 ...
  • Королевство полной луны / Moonrise Kingdom (Уэс Андерсон, Драма, мелодрама, ...
  • Королевство полной луны / Moonrise Kingdom (Уэс Андерсон, драма, комедия, 2 ...
  • Королевство полной луны / Moonrise Kingdom (Уэс Андерсон, драма, комедия, 2 ...
  • Королевство полной луны / Moonrise Kingdom (Уэс Андерсон, Драма, комедия, 2 ...
  • Королевство полной луны / Moonrise Kingdom (Уэс Андерсон, драма, комедия, ...
  • Королевство полной луны / Moonrise Kingdom (Уэс Андерсон, Драма, комедия, 2 ...
  • Информация
    Посетители, находящиеся в группе Гости, не могут оставлять комментарии к данной публикации.