вход на сайт

Имя пользователя :
Пароль :

Восстановление пароля Регистрация
Черное золото / Black Gold (Жан-Жак Анно, Драма, 2011) [BDRip-AVC, Профессиональный (полное дублирование) + Оригинал]
Рейтинг:
(голосов: 1)



[img]{THEME}/images/logopost.png[/img]



Черное золото / Black Gold

Год выпуска: 2011
Страна: Франция, Италия, Тунис, Катар
Производство: Quinta Communications
Жанр: драма

Режиссёр: Жан-Жак Анно
В ролях: Тахар Рахим, Антонио Бандерас, Марк Стронг, Фрида Пинто, Риз Ахмед, Джамал Авар, Лотфи Дзири, Эрик Эбони, Акин Гази, Лия Кебеде, Кори Джонсон, Жан Уддин

Перевод: Профессиональный (полное дублирование) [Лицензия] + Оригинал
Субтитры: нет

Описание: События картины разворачиваются где-то на Аравийском полуострове в 30 годы, примерно в то время, когда там была обнаружена нефть. В сюжете переплелись борьба за власть, религия, нефтяная лихорадка и, конечно же, любовь.
Качество: BDRip-AVC
Продолжительность: 02:10:12час.

Формат: MKV
Видео кодек: H.264
Аудио кодек: AC3
Видео: 1056x448 (2.35:1), 23.976fps, AVC, 1759 Kbps, 0.155 bit/pixel
Аудио1: 48.0 KHz, AC3, 6 ch, 448 Kbps - Дубляж
Аудио2: 48.0 KHz, AC3, 2 ch, 192 Kbps - Оригинал
MediaInfo ▼TextGeneral
Unique ID : 172568215047328612469986423692318739103 (0x81D36DE55A8FE3AC98C56799B3640A9F)
Complete name : O:Jolly RogerBlack.Gold.2011.x264.BDRip-AVC.JRG.mkv
Format : Matroska
Format version : Version 2
File size : 2.18 GiB
Duration : 2h 10mn
Overall bit rate : 2 401 Kbps
Movie name : A Thousand Words 2009 - The Jolly Roger by Pirat.Ca [zyyx]
Encoded date : UTC 2012-07-25 16:56:10
Writing application : mkvmerge v4.9.1 (Ich will) сборка от Jul 11 2011 23:53:15
Writing library : libebml v1.2.1 + libmatroska v1.1.1

Video
ID : 1
Format : AVC
Format/Info : Advanced Video Codec
Format profile : [email protected]
Format settings, CABAC : Yes
Format settings, ReFrames : 16 frames
Codec ID : V_MPEG4/ISO/AVC
Duration : 2h 10mn
Bit rate : 1 759 Kbps
Width : 1 056 pixels
Height : 448 pixels
Display aspect ratio : 2.35:1
Frame rate : 23.976 fps
Color space : YUV
Chroma subsampling : 4:2:0
Bit depth : 8 bits
Scan type : Progressive
Bits/(Pixel*Frame) : 0.155
Stream size : 1.56 GiB (71%)
Title : R.G. Jolly Roger
Writing library : x264 core 116 r2044 392e762
Encoding settings : cabac=1 / ref=16 / deblock=1:-2:-2 / analyse=0x3:0x133 / me=umh / subme=10 / psy=1 / psy_rd=1.00:0.10 / mixed_ref=1 / me_range=40 / chroma_me=1 / trellis=2 / 8x8dct=1 / cqm=0 / deadzone=21,11 / fast_pskip=0 / chroma_qp_offset=-3 / threads=9 / sliced_threads=0 / nr=0 / decimate=1 / interlaced=0 / bluray_compat=0 / constrained_intra=0 / bframes=10 / b_pyramid=2 / b_adapt=2 / b_bias=0 / direct=3 / weightb=1 / open_gop=0 / weightp=2 / keyint=250 / keyint_min=23 / scenecut=40 / intra_refresh=0 / rc_lookahead=50 / rc=2pass / mbtree=1 / bitrate=1759 / ratetol=1.0 / qcomp=0.60 / qpmin=0 / qpmax=69 / qpstep=4 / cplxblur=20.0 / qblur=0.5 / ip_ratio=1.40 / aq=1:1.00
Default : Yes
Forced : No

Audio #1
ID : 2
Format : AC-3
Format/Info : Audio Coding 3
Mode extension : CM (complete main)
Format settings, Endianness : Big
Codec ID : A_AC3
Duration : 2h 10mn
Bit rate mode : Constant
Bit rate : 448 Kbps
Channel(s) : 6 channels
Channel positions : Front: L C R, Side: L R, LFE
Sampling rate : 48.0 KHz
Bit depth : 16 bits
Compression mode : Lossy
Stream size : 417 MiB (19%)
Language : Russian
Default : Yes
Forced : No

Audio #2
ID : 3
Format : AC-3
Format/Info : Audio Coding 3
Mode extension : CM (complete main)
Format settings, Endianness : Big
Codec ID : A_AC3
Duration : 2h 10mn
Bit rate mode : Constant
Bit rate : 192 Kbps
Channel(s) : 2 channels
Channel positions : Front: L R
Sampling rate : 48.0 KHz
Bit depth : 16 bits
Compression mode : Lossy
Stream size : 179 MiB (8%)
Language : English
Default : No
Forced : No


44ca3f551d69703e6c016ec13e94b91529895811Черное золото / Black Gold (Жан-Жак Анно, Драма, 2011) [BDRip-AVC, Профессиональный (полное дублирование) + Оригинал] Черное золото / Black Gold (Жан-Жак Анно, Драма, 2011) [BDRip-AVC, Профессиональный (полное дублирование) + Оригинал] " />

Аплоадер: Админ, дата: 26-07-2012, 12:00, торрент скачан: 359 раз

Понравилась раздача? Посмотрите эти:
  • Пастырь / Priest (Скотт Чарльз Стюарт, ужасы, фантастика, боевик, триллер, ...
  • Иллюзия обмана / Now You See Me [Theatrical Cut] (Луи Летерье / Louis Leter ...
  • Четвертый вид / The Fourth Kind (Олатунде Осунсанми, ужасы, фантастика, 200 ...
  • Соучастник / Collateral (Майкл Манн, Триллер, драма, криминал, 2004) [BDRip ...
  • Жизнь Пи / Life Of Pi (Энг Ли, Драма, приключения, 2012) [BDRip 1080p, Проф ...
  • Экипаж / Flight (Роберт Земекис, Драма, 2012) [BDRip-AVC, Профессиональный ...
  • Аноним / Anonymous (Роланд Эммерих, триллер, драма, 2011) [BDRip-AVC, Профе ...
  • Голодный кролик атакует / Seeking Justice (Роджер Дональдсон / Roger Donald ...
  • Хранитель времени / Hugo (Мартин Скорсезе, Драма, 2011) [BDRip-AVC, Професс ...
  • Больше чем секс / No Strings Attached (Айвен Райтман, мелодрама, комедия, 2 ...
  • Боевой конь / War Horse (Стивен Спилберг, драма, военный, 2011) [BDRip-AVC, ...
  • Черное золото / Black Gold (Жан-Жак Анно, Драма, 2011) [HDRip, Дубляж]
  • Черное золото / Black Gold (Жан-Жак Анно, Драма, 2011) [BDRip-AVC, Дубляж, ...
  • Черное золото / Black Gold (Жан-Жак Анно, Драма, 2011) [HDRip-AVC, Професси ...
  • Черное золото / Black Gold (Жан-Жак Анно, Драма, 2011) [BDRip-AVC, DUB + DV ...
  • Цветы войны / Jin líng shí san chai (Чжан Имоу, драма, военный, история, 20 ...
  • Странная жизнь Тимоти Грина / The Odd Life of Timothy Green (Питер Хеджес, ...
  • Коллекционер 2 / The Collection (Маркус Данстэн, ужасы, боевик, триллер , 2 ...
  • Черное золото / Black Gold (Жан-Жак Анно, драма, 2011) [BDRip 1080p, Профес ...
  • Черное золото / Black Gold (Жан-Жак Анно, Драма, приключения, военный, 2011 ...
  • Mylene Farmer / Du Temps [2011, Pop, HDTVRip]
  • Mylene Farmer / Bleu Noir [2011, Pop, HDTVRip]
  • PBS: Природа – Гималаи / PBS: Nature – The Himalayas (Крис Морган, Докумен ...
  • Черное золото / Black Gold (Жан-Жак Анно, драма, 2011) [HDRip, Дублированны ...
  • Черное золото / Black Gold (Жан-Жак Анно, Драма, 2011) [HDRip, Профессионал ...
  • Информация
    Посетители, находящиеся в группе Гости, не могут оставлять комментарии к данной публикации.