вход на сайт

Имя пользователя :
Пароль :

Восстановление пароля Регистрация
Гордость и предубеждение / Pride & Prejudice (Джо Райт, Драма, мелодрама, 2005) [BDRip - AVC, Дублированный + Оригинал + SUB]
Рейтинг:
(голосов: 1)



[img]{THEME}/images/logopost.png[/img]



Гордость и предубеждение / Pride & Prejudice
«Sometimes the last person on earth you want to be with is the one person you cant be without.»

Год выпуска: 2005
Страна: Франция , Великобритания
Производство: Focus Features, Scion Films Limited, Studio Canal, Universal Pictures, Working Title Films
Жанр: Драма, мелодрама

Режиссёр: Джо Райт | Joe Wright
В ролях: Кира Найтли, Талула Райли, Розамунд Пайк, Джена Мэлоун, Кэри Маллиган, Дональд Сазерленд, Бренда Блетин, Клоди Блейкли, Сильвестр Моранд, Саймон Вудс


Перевод: 1: Профессиональный (полное дублирование) | DUB
2: Оригинал
Субтитры: русские (пропущенные фразы), английские

Описание:
Англия, конец XVIII века. Родители пятерых сестер Беннет озабочены тем, чтобы удачно выдать дочерей замуж. И потому размеренная жизнь солидного семейства переворачивается вверх дном, когда по соседству появляется молодой джентльмен — мистер Бингли…

Само собой, среди друзей нового соседа оказывается немало утонченных аристократов, которые не прочь поухаживать за очаровательными сестрами. Однако, все не так просто. Своевольная Элизабет знакомится с другом Бингли — красивым и высокомерным мистером Дарси, и между ними разгорается нешуточное противостояние, результатом которого может стать как любовь, так и ненависть…Дата премьеры (мир): 25 июля 2005
Дата премьеры (РФ): 12 января 2006, «UIP»
Качество: BDRip - AVC
Продолжительность: 02:08:17

Формат: MKV
Видео кодек: x264
Аудио кодек: AС3
Видео: 1032x440 (2.35:1), 23.976 fps, AVC, ~2 182 kbps avg, 0.195 bit/pixel
Аудио #1: [RUS] 48 kHz, AС3, 6 channels (Front: L C R, Side: L R, LFE), ~448.00 kbps avg | DUB
Аудио #2: [ENG] 48 kHz, AС3, 6 channels (Front: L C R, Side: L R, LFE), ~448.00 kbps avg | Оригинал
MediaInfo ▼TextGeneral
Complete name : C:FilmsPride.and.Prejudice.2005.BDRip.x264.ac3.tRuAVC.mkv
Format : Matroska
File size : 2.76 GiB
Duration : 2h 8mn
Overall bit rate : 3 080 Kbps
Encoded date : UTC 2010-05-29 18:36:22
Writing application : mkvmerge v3.4.0 (Rapunzel) built on May 15 2010 09:38:20
Writing library : libebml v0.8.0 + libmatroska v0.9.0
Video
ID : 1
Format : AVC
Format/Info : Advanced Video Codec
Format profile : [email protected]
Format settings, CABAC : Yes
Format settings, ReFrames : 14 frames
Muxing mode : Container [email protected]
Codec ID : V_MPEG4/ISO/AVC
Duration : 2h 8mn
Bit rate : 2 182 Kbps
Width : 1 032 pixels
Height : 440 pixels
Display aspect ratio : 2.35:1
Frame rate : 23.976 fps
Resolution : 8 bits
Colorimetry : 4:2:0
Scan type : Progressive
Bits/(Pixel*Frame) : 0.195
Stream size : 1.90 GiB (69%)
Writing library : x264 core 94 r1570 d9db8b3
Encoding settings : cabac=1 / ref=14 / deblock=1:-3:-1 / analyse=0x3:0x113 / me=umh / subme=10 / psy=1 / psy_rd=1.15:0.15 / mixed_ref=1 / me_range=32 / chroma_me=1 / trellis=2 / 8x8dct=1 / cqm=0 / deadzone=21,11 / fast_pskip=1 / chroma_qp_offset=-3 / threads=4 / sliced_threads=0 / nr=0 / decimate=1 / interlaced=0 / constrained_intra=0 / bframes=12 / b_pyramid=2 / b_adapt=2 / b_bias=0 / direct=1 / wpredb=1 / wpredp=2 / keyint=250 / keyint_min=25 / scenecut=40 / intra_refresh=0 / rc_lookahead=60 / rc=crf / mbtree=1 / crf=20.4 / qcomp=0.72 / qpmin=10 / qpmax=51 / qpstep=4 / ip_ratio=1.40 / aq=2:1.00 / zones=175175,184564,q=35
Language : English
Matrix coefficients : BT.709-5, BT.1361, IEC 61966-2-4 709, SMPTE RP177
Audio #1
ID : 2
Format : AC-3
Format/Info : Audio Coding 3
Codec ID : A_AC3
Duration : 2h 8mn
Bit rate mode : Constant
Bit rate : 448 Kbps
Channel(s) : 6 channels
Channel positions : Front: L C R, Surround: L R, LFE
Sampling rate : 48.0 KHz
Stream size : 411 MiB (15%)
Title : Dub
Language : Russian
Audio #2
ID : 3
Format : AC-3
Format/Info : Audio Coding 3
Codec ID : A_AC3
Duration : 2h 8mn
Bit rate mode : Constant
Bit rate : 448 Kbps
Channel(s) : 6 channels
Channel positions : Fron
4f1b57b01bae4e9034b5dc5dcff7cb3c780368c3Гордость и предубеждение / Pride & Prejudice (Джо Райт, Драма, мелодрама, 2005) [BDRip - AVC, Дублированный + Оригинал + SUB] Гордость и предубеждение / Pride & Prejudice (Джо Райт, Драма, мелодрама, 2005) [BDRip - AVC, Дублированный + Оригинал + SUB] " />

Аплоадер: Админ, дата: 12-07-2012, 00:48, торрент скачан: 359 раз

Понравилась раздача? Посмотрите эти:
  • Армагеддец / The Worlds End (Эдгар Райт, фантастика, боевик, комедия, 2013) ...
  • Снова ты / You Again (Энди Фикмен, Мелодрама, комедия, 2010) [BDRip-AVC, Пр ...
  • Жизнь Пи / Life Of Pi (Энг Ли, Драма, приключения, 2012) [BDRip 720p, Профе ...
  • Анна Каренина / Anna Karenina (Джо Райт, Драма, мелодрама, 2012) [BDRip 720 ...
  • Анна Каренина / Anna Karenina (Джо Райт, Драма, мелодрама, 2012) [BDRip 108 ...
  • Гордость и предубеждение / Pride & Prejudice (Джо Райт, драма, мелодрам ...
  • Гордость и предубеждение / Pride & Prejudice(Джо Райт, Mелодрама, драма ...
  • Гордость и предубеждение / Pride & Prejudice (Джо Райт / Joe Wright, драма, ...
  • Аноним / Anonymous (Роланд Эммерих, триллер, драма, 2011) [BDRip-AVC, Профе ...
  • Мартовские иды / The Ides of March (Джордж Клуни / George Clooney, драма, 2 ...
  • Персонаж / Stranger Than Fiction (Марк Форстер, Комедия, драма, фантастика, ...
  • Вальгалла: Сага о викинге / Valhalla Rising (Николас Виндинг Рёфн, боевик, ...
  • Больше, чем любовь / A Lot Like Love (Найджел Коул, драма, мелодрама, комед ...
  • Таможня дает добро / Rien à déclarer (Дэни Бун, Комедия, 2010) [BDRip - AVC ...
  • Человек-волк [Театральная версия] / The Wolfman [Theatrical cut] (Джо Джонс ...
  • Большая игра / State of Play (Кевин МакДональд / Kevin McDonald, триллер, д ...
  • Робин Гуд [Режиссёрская версия] / Robin Hood [Directors Cut] (Ридли Скотт / ...
  • Больше, чем любовь / A Lot Like Love (Найджел Коул, драма, мелодрама, комед ...
  • Роб Рой / Rob Roy (Майкл Кейтон-Джонс, боевик, драма, мелодрама, 1995) [BDR ...
  • Гордость и предубеждение / Pride & Prejudice (Джо Райт, Мелодрама, драм ...
  • Путешествие на край Вселенной / Journey to the Edge of the Universe (Явар А ...
  • Гордость и предубеждение/ Pride & Prejudice (Саймон Лэнгон, драма, мело ...
  • Гордость и предубеждение / Pride & Prejudice (Джо Райт, драма, мелодрам ...
  • Гордость и предубеждение / Pride & Prejudice (Джо Райт, Mелодрама, драм ...
  • (2005) Dario Marianelli / Pride & Prejudice / Гордость и Предубеждение (OST ...
  • Информация
    Посетители, находящиеся в группе Гости, не могут оставлять комментарии к данной публикации.