вход на сайт

Имя пользователя :
Пароль :

Восстановление пароля Регистрация
Доброе утро / Morning Glory (Роджер Мичелл / Roger Michell, драма, мелодрама, комедия, 2010) [BDRip - AVC, Дублированный + Оригинал + SUB]
Рейтинг:
(голосов: 1)



[img]{THEME}/images/logopost.png[/img]



Доброе утро / Morning Glory
«Романтическая комедия о карьере... и не только о ней»

Год выпуска: 2010
Страна: США
Производство: Bad Robot
Жанр: драма, мелодрама, комедия

Режиссёр: Роджер Мичелл / Roger Michell
В ролях: Рэйчел МакАдамс, Харрисон Форд, Дайан Китон, Патрик Уилсон, Джефф Голдблюм, Ной Бин, Ванесса Аспиллага, Джефф Хиллер, Джон Пэнкоу, Линда Пауэлл ...

Перевод: 1: Профессиональный (полное дублирование)(DUB)
2: Оригинал
Субтитры: русские, английские

Описание: Когда неутомимого телепродюсера Бекки Фулер увольняют с программы местных новостей, ее карьера становится столь же безнадежной, как и ее личная жизнь. Устроившись в третьесортное утреннее шоу, Бекки решает реанимировать его, пригласив легендарного ведущего Майка Помероя. К сожалению, Майк отказывается рассказывать о моде, погоде и сплетничать о знаменитостях. Это делает его соведущая Колин Пек, бывшая королева красоты и героиня утренних программ, которая в восторге от возможности поделиться с миром свежими «новостями».

По мере того, как ведущие вступают в войну сначала за кадром, а потом и в эфире, в жизнь Бекки входит любовь к коллеге по цеху Адаму Беннету. И вот уже Бекки борется за свои отношения, репутацию, работу и, естественно, за судьбу шоу.Дата премьеры (мир): 10 ноября 2010
Дата премьеры (РФ): 13 января 2011, «Централ Партнершип»
Релиз на DVD: 17 мая 2011, «Юниверсал Пикчерс Рус»
Релиз на Blu-Ray: 12 апреля 2012, «Новый Диск»
Качество: BDRip-AVC
Продолжительность: 01:47:28

Формат: MKV
Видео кодек: x264
Аудио кодек: AC3
Видео: 1136x472 (2.40:1), 23.976 fps, AVC, 3149 kbps avg, 0.245 bit/pixel
Аудио #1: [Russian] 48 kHz, AC3, 6 channels (Front: L C R, Side: L R, LFE), 448 kbps avg | DUB
Аудио #2: [English] 48 kHz, AC3, 6 channels (Front: L C R, Side: L R, LFE), 448 kbps avg | Оригинал
MediaInfo ▼TextComplete name : E:Morning Glory.2010.BDrip-AVC.Froloff777.mkv
Format : Matroska
File size : 3.04 GiB
Duration : 1h 47mn
Overall bit rate : 4 052 Kbps
Encoded date : UTC 2011-05-18 19:35:56
Writing application : mkvmerge v4.5.0 (Speed of Light) built on Feb 15 2011 12:50:20
Writing library : libebml v1.2.0 + libmatroska v1.1.0
Cover : Yes

Video
ID : 1
Format : AVC
Format/Info : Advanced Video Codec
Format profile : [email protected]
Format settings, CABAC : Yes
Format settings, ReFrames : 10 frames
Codec ID : V_MPEG4/ISO/AVC
Duration : 1h 47mn
Bit rate : 3 149 Kbps
Width : 1 136 pixels
Height : 472 pixels
Display aspect ratio : 2.40:1
Frame rate : 23.976 fps
Color space : YUV
Chroma subsampling : 4:2:0
Bit depth : 8 bits
Scan type : Progressive
Bits/(Pixel*Frame) : 0.245
Stream size : 2.31 GiB (76%)
Writing library : x264 core 112 r1834 a51816a
Encoding settings : cabac=1 / ref=10 / deblock=1:-3:-2 / analyse=0x3:0x113 / me=umh / subme=9 / psy=1 / psy_rd=0.90:0.05 / mixed_ref=1 / me_range=32 / chroma_me=1 / trellis=2 / 8x8dct=1 / cqm=0 / deadzone=21,11 / fast_pskip=0 / chroma_qp_offset=-3 / threads=3 / sliced_threads=0 / nr=0 / decimate=1 / interlaced=0 / constrained_intra=0 / bframes=9 / b_pyramid=2 / b_adapt=2 / b_bias=0 / direct=3 / weightb=1 / open_gop=0 / weightp=2 / keyint=250 / keyint_min=23 / scenecut=40 / intra_refresh=0 / rc_lookahead=60 / rc=2pass / mbtree=0 / bitrate=3149 / ratetol=1.0 / qcomp=0.60 / qpmin=0 / qpmax=51 / qpstep=4 / cplxblur=20.0 / qblur=0.5 / vbv_maxrate=50000 / vbv_bufsize=62500 / ip_ratio=1.40 / pb_ratio=1.30 / aq=1:1.00 / nal_hrd=none
Language : English

Audio #1
ID : 2
Format : AC-3
Format/Info : Audio Coding 3
Mode extension : CM (complete main)
Codec ID : A_AC3
Duration : 1h 47mn
Bit rate mode : Constant
Bit rate : 448 Kbps
Channel(s) : 6 channels
Channel positions : Front: L C R, Side: L R, LFE
Sampling rate : 48.0 KHz
Bit depth : 16 bits
Compression mode : Lossy
Stream size : 344 MiB (11%)
Title : Dub
Language : Russian
 
e3098e2fa4df0543bb9ab5502b3645093321128eДоброе утро / Morning Glory (Роджер Мичелл / Roger Michell, драма, мелодрама, комедия, 2010) [BDRip - AVC, Дублированный + Оригинал + SUB] Доброе утро / Morning Glory (Роджер Мичелл / Roger Michell, драма, мелодрама, комедия, 2010) [BDRip - AVC, Дублированный + Оригинал + SUB] " />

Аплоадер: Админ, дата: 8-06-2012, 22:06, торрент скачан: 359 раз

Понравилась раздача? Посмотрите эти:
  • Доброе утро / Morning Glory (Роджер Мичелл / Roger Michell) [2010, драма, м ...
  • Весенние надежды / Hope Springs (Дэвид Фрэнкел, Драма, мелодрама, комедия, ...
  • Доброе утро / Morning Glory (Роджер Мичелл, драма, мелодрама, комедия, 2010 ...
  • Доброе утро / Morning Glory (Роджер Мичелл, драма, мелодрама, комедия, 2010 ...
  • Голодный кролик атакует / Seeking Justice (Роджер Дональдсон, боевик, 2011) ...
  • Голодный кролик атакует / Seeking Justice (Роджер Дональдсон / Roger Donald ...
  • Персонаж / Stranger Than Fiction (Марк Форстер, Комедия, драма, фантастика, ...
  • Больше чем секс / No Strings Attached (Айвен Райтман, мелодрама, комедия, 2 ...
  • Бедная богатая девочка / Young Adult (Джейсон Райтман, драма, комедия, 2011 ...
  • Вампирский засос / Vampires Suck (Джейсон Фридберг, Аарон Зельцер, комедия, ...
  • Человек-волк [Театральная версия] / The Wolfman [Theatrical cut] (Джо Джонс ...
  • Робин Гуд [Режиссёрская версия] / Robin Hood [Directors Cut] (Ридли Скотт / ...
  • Апокалипсис сегодня / Apocalypse Now (Френсис Форд Коппола / Francis Ford C ...
  • Сутенер / Le mac (Паскаль Бюрдо / Pascal Bourdiaux, комедия, криминал, 2010 ...
  • Ноттинг Хилл / Notting Hill (Роджер Мичелл, Мелодрама, комедия, 1999) [BDRi ...
  • Доброе утро / Morning Glory (Роджер Мичелл, драма, мелодрама, комедия, 2010 ...
  • Мой парень из зоопарка / Zookeeper (Фрэнк Корачи, мелодрама, комедия, семей ...
  • Секс по дружбе / Friends with Benefits (Уилл Глак, драма, мелодрама, комеди ...
  • Ларри Краун / Larry Crowne (Том Хэнкс, драма, мелодрама, комедия, 2011) [BD ...
  • Домашняя работа / The Art of Getting By (Гэвин Вьесен, драма, мелодрама, 20 ...
  • Значит, война / This Means War (МакДжи, боевик, мелодрама, комедия, 2012) [ ...
  • Mylene Farmer / Du Temps [2011, Pop, HDTVRip]
  • Mylene Farmer / Bleu Noir [2011, Pop, HDTVRip]
  • Доброе утро / Morning Glory (Роджер Мичелл / драма, мелодрама, комедия / 20 ...
  • Доброе утро / Morning Glory (Роджер Мичелл, драма, мелодрама, комедия, 2010 ...
  • Информация
    Посетители, находящиеся в группе Гости, не могут оставлять комментарии к данной публикации.