вход на сайт

Имя пользователя :
Пароль :

Восстановление пароля Регистрация
1+1 / Неприкасаемые / Intouchables (Оливье Накаш, Эрик Толедано, драма, комедия, 2011) [BDRip-AVC, Дубляж, Sub]
Рейтинг:
(голосов: 1)



[img]{THEME}/images/logopost.png[/img]



Неприкасаемые / Intouchables

Год выпуска: 2011
Страна: Франция
Производство: Quad Productions
Жанр: драма, комедия

Режиссёр: Оливье Накаш, Эрик Толедано
В ролях: Франсуа Клюзе, Омар Сай, Анн Ле Ни, Одри Флеро, Клотильд Молле, Альба Гайя, Крагеде Беллуджи, Сирил Менди, Кристиан Амери, Грегуар Эстерманн, Жозефин де Мо.

Перевод: Дубляж
Субтитры: русские

Описание: Пострадав в результате несчастного случая, богатый аристократ Филипп нанимает в помощники человека, который менее всего подходит для этой работы, — молодого жителя предместья, араба Дрисса, только что освободившегося из тюрьмы. Несмотря на то, что Филипп прикован к инвалидному креслу, Дриссу удается привнести в размеренную жизнь аристократа дух приключений.

Сэмпл

IMDB: 8.50 (40 127)
КиноПоиск: 8.915 (37 643)

Качество: BDRip-AVC
Продолжительность:01:52:02 час.


Формат: MKV
Видео кодек: AVC
Аудио кодек: AC3
Видео: 1152x624 (16:9), 24 fps, AVC ~2 333 kbps avg, 0.132 bit/pixel
Аудио: 48 kHz, AC3, 3/2 (L,C,R,l,r) + LFE ch, ~448.00 kbpsДубляж

Дата премьеры (мир): 23 сентября 2011
Дата премьеры (РФ): 26 апреля 2012, «Каскад»


MediaInfo ▼
Nepricosaemie.2011.BDRip-AVC.chopper887.mkv
Format : Matroska
File size : 2.18 GiB
Duration : 1h 52mn
Overall bit rate : 2 781 Kbps
Encoded date : UTC 2012-05-24 08:03:09
Writing application : mkvmerge v2.9.8 (Cest le bon) built on Aug 13 2009 12:49:06
Writing library : libebml v0.7.7 + libmatroska v0.8.1

Video
ID : 1
Format : AVC
Format/Info : Advanced Video Codec
Format profile : [email protected]
Format settings, CABAC : Yes
Format settings, ReFrames : 10 frames
Muxing mode : Container [email protected]
Codec ID : V_MPEG4/ISO/AVC
Duration : 1h 52mn
Bit rate : 2 278 Kbps
Nominal bit rate : 2 333 Kbps
Width : 1 152 pixels
Height : 624 pixels
Display aspect ratio : 16:9
Frame rate : 24.000 fps
Resolution : 24 bits
Colorimetry : 4:2:0
Scan type : Progressive
Bits/(Pixel*Frame) : 0.132
Stream size : 1.78 GiB (82%)
Title : 1+1/Intouchables.2011.BDRip-AVC.chopper887
Writing library : x264 core 120 r2164 da19765
Encoding settings : cabac=1 / ref=10 / deblock=1:-2:-1 / analyse=0x3:0x133 / me=umh / subme=11 / psy=1 / psy_rd=1.00:0.10 / mixed_ref=1 / me_range=32 / chroma_me=1 / trellis=2 / 8x8dct=1 / cqm=0 / deadzone=21,11 / fast_pskip=0 / chroma_qp_offset=-3 / threads=12 / sliced_threads=0 / nr=0 / decimate=1 / interlaced=0 / bluray_compat=0 / constrained_intra=0 / bframes=8 / b_pyramid=2 / b_adapt=2 / b_bias=0 / direct=3 / weightb=1 / open_gop=0 / weightp=2 / keyint=240 / keyint_min=24 / scenecut=40 / intra_refresh=0 / rc_lookahead=80 / rc=2pass / mbtree=1 / bitrate=2333 / ratetol=1.0 / qcomp=0.60 / qpmin=10 / qpmax=51 / qpstep=4 / cplxblur=20.0 / qblur=0.5 / ip_ratio=1.40 / aq=1:1.00
Language : English

Audio
ID : 2
Format : AC-3
Format/Info : Audio Coding 3
Codec ID : A_AC3
Duration : 1h 52mn
Bit rate mode : Constant
Bit rate : 448 Kbps
Channel(s) : 6 channels
Channel positions : Front: L C R, Surround: L R, LFE
Sampling rate : 48.0 KHz
Stream size : 359 MiB (16%)
Title : 48.0 KHz, AC3, 6 ch, 448 Kbps - Dub
Language : Russian

Text
ID : 3
Format : UTF-8
Codec ID : S_TEXT/UTF8
Codec ID/Info : UTF-8 Plain Text
Language : Russian





d458f01a8fcbef795c204fbfde85488d246c838f1+1 / Неприкасаемые / Intouchables (Оливье Накаш, Эрик Толедано, драма, комедия, 2011) [BDRip-AVC, Дубляж, Sub] 1+1 / Неприкасаемые / Intouchables (Оливье Накаш, Эрик Толедано, драма, комедия, 2011) [BDRip-AVC, Дубляж, Sub] " />

Аплоадер: Админ, дата: 24-05-2012, 15:40, торрент скачан: 359 раз

Понравилась раздача? Посмотрите эти:
  • Хранитель времени / Hugo (Мартин Скорсезе, Драма, 2011) [BDRip-AVC, Професс ...
  • Пеликан / Nicostratos le pelican (Оливье Орле, драма, комедия, 2011) [BDRip ...
  • 1+1 / Неприкасаемые / Intouchables (Оливье Накаш, Эрик Толедано, Драма, 201 ...
  • 1+1 / Неприкасаемые / Intouchables (Оливье Накаш, Эрик Толедано, Драма, 201 ...
  • 1+1 / Неприкасаемые / Intouchables ( Оливье Накаш, Эрик Толедано, драма, ко ...
  • 1+1 / Неприкасаемые / Intouchables (Оливье Накаш, Эрик Толедано, драма, ком ...
  • 1+1 / Неприкасаемые / Intouchables (Оливье Накаш, Эрик Толедано, драма, ком ...
  • 1+1 / Неприкасаемые / Intouchables (Оливье Накаш, Эрик Толедано, драма, ком ...
  • 1+1 / Неприкасаемые / Intouchables (Оливье Накаш, Эрик Толедано, драма, ком ...
  • Неприкасаемые (1+1) / Intouchables (Оливье Накаш, Эрик Толедано, драма, ком ...
  • 1+1 / Неприкасаемые / Intouchables (Оливье Накаш, Эрик Толедано, Драма, ком ...
  • 1+1 / Неприкасаемые / Intouchables (Оливье Накаш, Эрик Толедано, Драма, 201 ...
  • Неприкасаемые / 1+1 / Intouchables (Оливье Накаш, Эрик Толедано, драма, ком ...
  • [FR] Неприкасаемые / Intouchables (Оливье Накаш, Эрик Толедано, драма, 2011 ...
  • Неприкасаемые / Intouchables (Оливье Накаш, Эрик Толедано, Драма, 2011) [BD ...
  • Неприкасаемые / Intouchables (Оливье Накаш, Эрик Толедано, драма, комедия, ...
  • 1+1 / Неприкасаемые / Intouchables (Оливье Накаш, Эрик Толедано, драма, ком ...
  • 1+1 / Неприкасаемые / Intouchables (Оливье Накаш, Эрик Толедано, Драма, 201 ...
  • 1+1 / Неприкасаемые / Intouchables (Оливье Накаш, Эрик Толедано, драма, ком ...
  • 1+1 / Неприкасаемые / Intouchables (Оливье Накаш, Эрик Толедано, драма, ком ...
  • 1+1 / Неприкасаемые / Intouchables (Оливье Накаш, Эрик Толедано, драма, ком ...
  • Неприкасаемые / Intouchables (Оливье Накаш, Эрик Толедано, драма, комедия, ...
  • 1+1 / Неприкасаемые / Intouchables (Оливье Накаш, Эрик Толедано, драма, ком ...
  • 1+1 / Неприкасаемые / Intouchables (Оливье Накаш, Эрик Толедано, драма, ком ...
  • 1+1 / Неприкасаемые / Intouchables (Оливье Накаш, Эрик Толедано, Драма, 201 ...
  • Информация
    Посетители, находящиеся в группе Гости, не могут оставлять комментарии к данной публикации.