вход на сайт

Имя пользователя :
Пароль :

Восстановление пароля Регистрация
Вот я какой/ Thats What I Am (Майкл Павоне, Драма, 2011) [HDRip, Профессиональный (многоголосый, закадровый)]
Рейтинг:
(голосов: 1)



[img]{THEME}/images/logopost.png[/img]



Вот я какой/ Thats What I Am
Слоган «Я учитель. Я певец. Я писатель.»

Год выпуска: 2011
Страна: США
Производство: World Wrestling Entertainment (WWE)
Жанр: драма

Режиссёр: Майкл Павоне
В ролях: Эд Харрис, Чейз Эллисон, Молли Паркер, Дэниэл Робак, Рэнди Ортон, Дэниэл Ельский, Alexander Walters, Миа Фрэмптон, Эми Мэдиган, Камилль Е. III Буржуа

Перевод: Профессиональный (многоголосый, закадровый)
Субтитры:нет
Описание
Средняя школа — это настоящее испытание для 12 летнего подростка по имени Энди Никол. Он страдал абсолютно от всего: своей несуразной внешности, большой головы и худенького тела, огненно-рыжих волос и застенчивого характера. Одноклассники то и дело превращали Энди в объект для насмешек. Среди беспросветного угнетения нашелся человек, который не только поддержал Энди, но и дал надежду изменить свою жизнь. Этим человеком оказался преподаватель господин Симон. Они объединили свои усилия, чтобы раз и навсегда остановить школьных хулиганов.

"MI" ▼Общее
Полное имя : D:Vot.ja.kakoj.2011.P.HDRip.avi
Формат : AVI
Формат/Информация : Audio Video Interleave
Размер файла : 1,46 Гбайт
Продолжительность : 1 ч. 41 м.
Общий поток : 2063 Кбит/сек
Программа кодирования : VirtualDubMod 1.5.10.2 (build 2540/release)
Библиотека кодирования : VirtualDubMod build 2540/release

Видео
Идентификатор : 0
Формат : MPEG-4 Visual
Профиль формата : Advanced [email protected]
Параметр BVOP формата : 2
Параметр QPel формата : Нет
Параметр GMC формата : Без точки перехода
Параметр матрицы формата : Выборочная
Идентификатор кодека : XVID
Идентификатор кодека/Подсказка : XviD
Продолжительность : 1 ч. 41 м.
Битрейт : 1670 Кбит/сек
Ширина : 720 пикселей
Высота : 384 пикселя
Соотношение сторон : 1,85:1
Частота кадров : 23,976 кадра/сек
Цветовое пространство : YUV
Субдискретизация насыщенности : 4:2:0
Битовая глубина : 8 бит
Тип развёртки : Прогрессивная
Метод сжатия : С потерями
Бит/(Пиксели*Кадры) : 0.252
Размер потока : 1,18 Гбайт (81%)
Библиотека кодирования : XviD 1.2.1 (UTC 2008-12-04)

Аудио
Идентификатор : 1
Формат : AC-3
Формат/Информация : Audio Coding 3
Расширение режима : CM (complete main)
Параметр Endianness формата : Big
Идентификатор кодека : 2000
Продолжительность : 1 ч. 41 м.
Вид битрейта : Постоянный
Битрейт : 384 Кбит/сек
Каналы : 6 каналов
Расположение каналов : Front: L C R, Side: L R, LFE
Частота : 48,0 КГц
Битовая глубина : 16 бит
Метод сжатия : С потерями
Размер потока : 278 Мбайт (19%)
Выравнивание : Разделение по промежуткам
Продолжительность промежутка : 42 мс. (1,00 видеокадр)
Время предзагрузки промежутка : 500 мс.
Тех. данные
Качество: HDRip
Продолжительность: 01:41:22 час.

Формат: AVI
Видео кодек: XviD
Аудио кодек: AС3
Видео: 720x384 (4:2:0), 23,976 fps, Advanced Video Codec ~1670 kbps avg, 0.8 bit/pixel
Аудио: 48 kHz, Audio Coding 3 Dolby Digital, 6 ch (Front: L C R, Side: L R, LFE), ~384 kbps avg

|Cтол заказов| Наши раздачи| Набор в группу| Сказать спасибо|
Раздача идет до 10 человек, не уходите с раздачи и не забываем говорит Спасибо


445545793f5b8360adcf6380507c911694fc19faВот я какой/ Thats What I Am (Майкл Павоне, Драма, 2011) [HDRip, Профессиональный (многоголосый, закадровый)] Вот я какой/ Thats What I Am (Майкл Павоне, Драма, 2011) [HDRip, Профессиональный (многоголосый, закадровый)] " />

Аплоадер: Админ, дата: 17-05-2012, 13:23, торрент скачан: 359 раз

Понравилась раздача? Посмотрите эти:
  • Бойфренд из будущего / About Time (Ричард Кёртис, Фантастика, драма, комеди ...
  • Одноклассники 2 / Grown Ups 2 (Деннис Дуган, Комедия, 2013) [BDRip, Професс ...
  • Прошлое / Le passé (Асгар Фархади, Драма, детектив , 2013) [HDRip, Авторски ...
  • Кровью и потом: Анаболики / Pain & Gain (Майкл Бэй, криминал, комедия, трил ...
  • Миллион для чайников / The Brass Teapot (Рамаа Мосли, Фэнтези, триллер, ком ...
  • Астрал на улице Арлетт / 388 Arletta Avenue (Рэндолл Коул, Триллер, 2011) [ ...
  • Глушь / Resurrection County (Матт Зеттел, Ужасы,триллер, 2008) [DVDRip, Про ...
  • Двенадцать бедствий на Рождество / The 12 Disasters of Christmas (Стивен Р. ...
  • Жил-был тигр / Ek Tha Tiger (Кабир Кхан, боевик, триллер , 2012) [ HDRip, ...
  • Легенда о МорДу / The Legend of MorDu (Брайан Ларсен, Короткометражный, ска ...
  • Отбой / Taps (Харольд Беккер, Драма, 1981) [DVDRip, Профессиональный (много ...
  • Путешествие на дно моря / Voyage to the Bottom of the Sea (Ирвин Аллен / I ...
  • Кажется, я люблю свою жену / I Think I Love My Wife (Крис Рок, Драма, мелод ...
  • Бог любви / God of Love (Люк Мэзени, Короткометражка, фэнтези, комедия, мел ...
  • Взлом: По ту сторону мира / .hack//Sekai no mukou ni // Фильм 1 (из 1) (20 ...
  • Заместитель / Il supplente (Андреа Жублин, Короткометражка, комедия, 2007) ...
  • Идеальный Голос / Pitch Perfect (Джейсон Мур, Комедия, музыка, 2012) [HDRip ...
  • Капитан Гром и Святой Грааль / El Capitán Trueno y el Santo Grial (Антонио ...
  • Покорить высоту / Take It to the Limit (Сэм Кит / Sam Kieth, семейный, 2000 ...
  • Боец из трущоб / Gutter King (Кейт Алан Моррис / Keith Alan Morris, боевик, ...
  • Нет мужчин - нет проблем / Without Men (Габриела Тальявини, Комедия, 2011) ...
  • Гениальный папа / Father of Invention (Трент Купер, Драма, комедия, 2010) [ ...
  • Глаз шторма / The Eye of the Storm (Фред Скеписи, Драма, 2011) [HDRip, Проф ...
  • Человек из банки (Иван Кульнев, Комедия, 2012) [DVDRip, Не требуется]
  • Сдохни, Джон Такер / John Tucker Must Die (Бетти Томас, мелодрама, комедия, ...
  • Информация
    Посетители, находящиеся в группе Гости, не могут оставлять комментарии к данной публикации.