вход на сайт

Имя пользователя :
Пароль :

Восстановление пароля Регистрация
Миленькие штучки / Les Jolies Choses (Жиль Паке-Бреннер, драма, 2011) [DVDRip, Профессиональный (многоголосый закадровый)]
Рейтинг:
(голосов: 1)



[img]{THEME}/images/logopost.png[/img]



Миленькие штучки / Les Jolies Choses

Год выпуска: 2001
Страна: Франция
Производство: C.A.P.A.C.
Жанр: драма

Режиссёр: Жиль Паке-Бреннер
В ролях: Марион Котийяр, Стоми Багси, Патрик Брюэль, Титофф, Офелия Винтер, Тони Амони, Оливье Гранье, Од Бреннер, Аксель Ренуар, Фридерик Сорель

Перевод: Профессиональный (многоголосый закадровый)
Субтитры: Отсутствуют

Описание: Мари и Люси — сестры-близнецы. Кроме внешнего сходство, у них нет ничего общего: ни характера, ни способностей, ни отношения к жизни. Люси, не имея хорошего голоса, мечтает записать свой диск и упрямо идет к цели, хотя ее друг Николя не верит в безголосую певицу.

На помощь сестре приходит Мари. Она будет петь вместо Люси… В этой детективной истории будут успех и неудачи, обманы и подмены… Но чем она закончится, если на кон поставлена известность и слава?



Качество: DVDRip (Исходник: DVD5)
Продолжительность: 01:38:48 час.

Формат: AVI
Видео кодек: XviD
Аудио кодек: AC3
Видео: 720x384 (2.35:1), 25.000 fps, XviD ~1657 kbps, 0.240 bit/pixel
Аудио: 48 kHz, AC3, 3/2 (L,C,R,l,r) + LFE ch, ~448.00 kbps avg | Russian (MVO)

Премьера (мир): 21 июля 2001
Mediainfo ▼General
Complete name : /Torrents/home/borodach/data/Миленькие штучки.avi
Format : AVI
Format/Info : Audio Video Interleave
File size : 1.46 GiB
Duration : 1h 38mn
Overall bit rate : 2 114 Kbps
Writing application : VirtualDubMod 1.5.10.2 (build 2540/release)
Writing library : VirtualDubMod build 2540/release

Video
ID : 0
Format : MPEG-4 Visual
Format profile : Advanced [email protected]
Format settings, BVOP : 3
Format settings, QPel : No
Format settings, GMC : No warppoints
Format settings, Matrix : Default (MPEG)
Codec ID : XVID
Codec ID/Hint : XviD
Duration : 1h 38mn
Bit rate : 1 657 Kbps
Width : 720 pixels
Height : 384 pixels
Display aspect ratio : 1.875
Frame rate : 25.000 fps
Color space : YUV
Chroma subsampling : 4:2:0
Bit depth : 8 bits
Scan type : Progressive
Compression mode : Lossy
Bits/(Pixel*Frame) : 0.240
Stream size : 1.14 GiB (78%)
Writing library : XviD 1.2.1 (UTC 2008-12-04)

Audio
ID : 1
Format : AC-3
Format/Info : Audio Coding 3
Mode extension : CM (complete main)
Codec ID : 2000
Duration : 1h 38mn
Bit rate mode : Constant
Bit rate : 448 Kbps
Channel(s) : 6 channels
Channel positions : Front: L C R, Side: L R, LFE
Sampling rate : 48.0 KHz
Bit depth : 16 bits
Compression mode : Lossy
Stream size : 317 MiB (21%)
Alignment : Aligned on interleaves
Interleave, duration : 40 ms (1.00 video frame)
Interleave, preload duration : 512 ms


b62aca08e542ca7231268d012bc77bc9f6172c40Миленькие штучки / Les Jolies Choses (Жиль Паке-Бреннер, драма, 2011) [DVDRip, Профессиональный (многоголосый закадровый)] Миленькие штучки / Les Jolies Choses (Жиль Паке-Бреннер, драма, 2011) [DVDRip, Профессиональный (многоголосый закадровый)] " />

Аплоадер: Админ, дата: 1-05-2012, 10:13, торрент скачан: 359 раз

Понравилась раздача? Посмотрите эти:
  • Непристойная комедия / InAPPropriate Comedy (Винс Оффер, комедия, 2013) [D ...
  • Непристойная комедия / InAPPropriate Comedy (Винс Оффер, комедия, 2013) [DV ...
  • Погнали! / Getaway (Кортни Соломон, Боевик, Криминал, 2013) [HDRip, Професс ...
  • Орудие смерти / A-i-deul... (Ли Гю Ман, Триллер, криминал, 2011) [DVDRip, П ...
  • Верное дельце / Une pure affaire (Александр Коффре, Боевик, Комедия, Кримин ...
  • Мэрайа Мунди и шкатулка Мидаса / The Adventurer: The Curse of the Midas Box ...
  • Мужество / Wymyk (Грег Зглински, драма, 2011) [DVDRip, Любительский (одного ...
  • 42 / 42 (Брайан Хелгеленд, драма, биография, спорт, 2013) [BDRip, Профессио ...
  • Альбатрос / Albatross (Найал МакКормик, Драма, 2011) [DVDRip, Профессиональ ...
  • Звук моего голоса / Sound of My Voice (Зал Батманглидж, триллер, драма, 201 ...
  • Лучший стрелок / Top Gun (Тони Скотт, боевик, драма, мелодрама, 1986) [BDRi ...
  • Суперстар / Superstar (Ксавье Джианноли, Драма, комедия, 2012) [HDRip, Проф ...
  • Воин / The One Warrior (Том Стаут, фантастика, 2011) [DVDRip,Оригинал,Профе ...
  • Плохая актриса / Bad Actress (Роберт Ли Кинг, комедия, 2011) [DVDRip, Профе ...
  • Доля ангелов / The Angels Share (Кен Лоуч, драма, комедия, 2012) [HDRip, Пр ...
  • Все песни только о любви / Les Chansons d amour (Кристоф Оноре, драма, 2007 ...
  • Джефф, живущий дома / Jeff, Who Lives at Home (Джей Дюпласс, Марк Дюпласс, ...
  • Захват / Carjacked (Джон Бонито, триллер, 2011)[BDRip, Профессиональный (мн ...
  • Спящая красавица / Sleeping Beauty (Джулия Ли, Драма, 2011) [HDRip, Професс ...
  • Миленькие штучки / Les Jolies Choses (Жиль Паке-Бреннер, драма, 2011) [DVDR ...
  • Последний отпуск / Last Holiday (Уэйн Ван, Драма, комедия, приключения, 200 ...
  • Супершторм в Сиэтле / Seattle Superstorm (Джейсон Бурк, фантастика, боевик ...
  • Мгновение любви / Here (Браден Кинг, Драма, мелодрама, приключения, 2011) [ ...
  • Девушки в опасности / Damsels in Distress (Уит Стиллман, драма, мелодрама, ...
  • Глаз шторма / The Eye of the Storm (Фред Скеписи, Драма, 2011) [HDRip, Проф ...
  • Информация
    Посетители, находящиеся в группе Гости, не могут оставлять комментарии к данной публикации.