вход на сайт

Имя пользователя :
Пароль :

Восстановление пароля Регистрация
Безумие / The Wackness (Джонатан Левин, драма, мелодрама, комедия, 2008) [BDRip-AVC, Профессиональный (многоголосый, закадровый)]
Рейтинг:
(голосов: 1)



[img]{THEME}/images/logopost.png[/img]



Безумие / The Wackness
«Иногда правильно делать неправильные вещи»



Год выпуска: 2008
Страна: США, Великобритания
Производство: Occupant Films, SBK Pictures
Жанр: драма, мелодрама, комедия

Режиссёр: Джонатан Левин
В ролях: Бен Кингсли, Джош Пек, Фамке Янссен, Оливия Тирлби, Мэри-Кейт Олсен, Джейн Адамс, Метод Мэн, Аарон Йу, Талия Балсам, Дэвид Уол

Перевод: Профессиональный (многоголосый, закадровый)[Союз-Видео]
Субтитры: нет

Описание: Лето 1994 — улицы Нью-Йорка пульсируют от хип-хопа и облака марихуаны двигаются своим путем… Нововыбранный мэр Рудольф Гулиани только начинает принимать меры против таких преступлений как громкое радио, рисунки на стенах и пьянство. Безумие показывает нам Люка Шапиро, студента и наркодилера, который подружился с доктором Джефри Сквиресом, психиатором и просто родственной душой. Когда доктор предложил Люку продать ему наркотик для сеансов терапии оба начинают исследовать глубины Нью-Йорка и своей депрессии.

IMDB: 7.00 (17 836)
КиноПоиск: 6.918 (967)



Качество: BDRip-AVC
Продолжительность: 01:39:04

Формат: MKV
Видео кодек: H.264
Аудио кодек: AС3
Видео: 1280x544 (2,35:1), 23,976 fps, 2338 Кбит/сек, 0.128 бит/пикселей
Аудио: 48 kHz, AС3, 2 ch (L,R), ~192.00 Кбит/сек

MediaInfo: ▼Общее
Уникальный идентификатор : 243082175081089599664497013165589197439 (0xB6DFEC8AD74A03C7A528D5357462F27F)
Полное имя : D:Безумие [BDRip-AVC].mkv
Формат : Matroska
Версия формата : Version 2
Размер файла : 1,62 Гбайт
Продолжительность : 1 ч. 39 м.
Общий поток : 2338 Кбит/сек
Дата кодирования : UTC 2012-04-20 17:43:07
Программа кодирования : mkvmerge v4.4.0 (Die Wiederkehr) сборка от Oct 31 2010 21:52:48
Библиотека кодирования : libebml v1.0.0 + libmatroska v1.0.0

Видео
Идентификатор : 1
Формат : AVC
Формат/Информация : Advanced Video Codec
Профиль формата : [email protected]
Параметр CABAC формата : Да
Параметр ReFrames формата : 3 кадра
Режим смешивания : Header stripping
Идентификатор кодека : V_MPEG4/ISO/AVC
Продолжительность : 1 ч. 39 м.
Битрейт : 2145 Кбит/сек
Ширина : 1280 пикселей
Высота : 544 пикселя
Соотношение сторон : 2,35:1
Частота кадров : 23,976 кадра/сек
Цветовое пространство : YUV
Субдискретизация насыщенности : 4:2:0
Битовая глубина : 8 бит
Тип развёртки : Прогрессивная
Бит/(Пиксели*Кадры) : 0.128
Размер потока : 1,45 Гбайт (90%)
Библиотека кодирования : x264 core 60 r891kVAQ2mod.PsyRDO-generic-pf 2ca4593
Настройки программы : cabac=1 / ref=3 / deblock=1:-2:-1 / analyse=0x1:0x131 / me=umh / subme=7 / rdcmp=psy / brdo=1 / mixed_ref=1 / me_range=16 / chroma_me=1 / trellis=2 / 8x8dct=0 / cqm=0 / deadzone=21,11 / chroma_qp_offset=0 / threads=2 / nr=0 / decimate=0 / mbaff=0 / bframes=3 / b_pyramid=0 / b_adapt=1 / b_bias=0 / direct=3 / wpredb=1 / bime=1 / keyint=250 / keyint_min=25 / scenecut=40(pre) / rc=2pass / bitrate=2145 / ratetol=1.0 / rceq=blurCplx^(1-qComp) / qcomp=0.60 / qpmin=10 / qpmax=51 / qpstep=4 / cplxblur=20.0 / qblur=0.5 / ip_ratio=1.40 / pb_ratio=1.30 / aq=3:3:0.60
Default : Да
Forced : Нет

Аудио
Идентификатор : 2
Формат : AC-3
Формат/Информация : Audio Coding 3
Расширение режима : CM (complete main)
Параметр Endianness формата : Big
Режим смешивания : Header stripping
Идентификатор кодека : A_AC3
Продолжительность : 1 ч. 39 м.
Вид битрейта : Постоянный
Битрейт : 192 Кбит/сек
Каналы : 2 канала
Расположение каналов : Front: L R
Частота : 48,0 КГц
Битовая глубина : 16 бит
Метод сжатия : С потерями
Размер потока : 136 Мбайт (8%)
Заголовок : Профессиональный (многоголосый, закадровый)
Язык : Russian
Default : Да
Forced : Нет


0380afd721f13dca91efe0ca23abf9894339ae8aБезумие / The Wackness (Джонатан Левин, драма, мелодрама, комедия, 2008) [BDRip-AVC, Профессиональный (многоголосый, закадровый)] Безумие / The Wackness (Джонатан Левин, драма, мелодрама, комедия, 2008) [BDRip-AVC, Профессиональный (многоголосый, закадровый)] " />

Аплоадер: Админ, дата: 21-04-2012, 01:00, торрент скачан: 359 раз

Понравилась раздача? Посмотрите эти:
  • Подглядывающий на кухне / Kick the Cock (Тинто Брасс, Эротика, короткометра ...
  • Кадиллак Рекордс / Cadillac Records (Дарнелл Мартин, драма, мелодрама, биог ...
  • Бунраку / Bunraku (Гай Моше, боевик, триллер, драма, 2010) [BDRip-AVC, Проф ...
  • Мэрайа Мунди и шкатулка Мидаса / The Adventurer: The Curse of the Midas Box ...
  • Погнали! / Getaway (Кортни Соломон, боевик, криминал, 2013) [BDRip-AVC, Про ...
  • Мэрайа Мунди и шкатулка Мидаса / The Adventurer: The Curse of the Midas Box ...
  • Филадельфия / Philadelphia (Джонатан Демме, Драма, 1993) [BDRip-AVC, Профес ...
  • Безумие / The Wackness (Джонатан Ливайн, Драма, мелодрама, комедия, 2008) [ ...
  • Летучий отряд Скотланд-Ярда / The Sweeney (Ник Лав, Боевик, драма, криминал ...
  • Рикошет / Ricochet (Ник Гомез, драма, детектив, 2011) [BDRip-AVC, Профессио ...
  • Запретная любовь / The Edge of Love (Джон Мэйбери, Драма, мелодрама, военны ...
  • Даю год / I Give It a Year (Дэн Мазер, мелодрама, комедия, 2012) [BDRip-AVC ...
  • Ну ты и придурок! / You Stupid Man (Брайан Барнс, мелодрама, комедия, 2002) ...
  • Суррогат / The Sessions (Бен Луин, Драма, 2012) [BDRip-AVC, Профессиональны ...
  • Ошибка телохранителя / The Girl from the Naked Eye (Дэвид Рен, боевик, трил ...
  • Думай, как мужчина / Think Like a Man (Тим Стори, Мелодрама, комедия, 2012) ...
  • Главное - не бояться! / A Little Bit of Heaven (Николь Кэссел / Nicole Kass ...
  • Сексуальная тварь / Sexy Beast (Джонатан Глейзер, драма, криминал, 2000) [B ...
  • Эд Вуд / Ed Wood (Тим Бёртон, драма, комедия, биография, 1994) [BDRip-AVC, ...
  • Четыре Рождества / Four Christmases (Сет Гордон, Драма, мелодрама, комедия, ...
  • Белка: Не время для орехов / Scrat: No Time for Nuts (Крис Рено, Майк Труме ...
  • Жестокие игры / Cruel Intentions (Роджер Камбл, мелодрама, драма, 1999) [BD ...
  • Последняя любовь на Земле / Perfect Sense (Дэвид МакКензи, фантастика, драм ...
  • Свадебный разгром / A Few Best Men (Стефан Эллиотт, Комедия, 2011) [BDRip 7 ...
  • Безумие / The Wackness (Джонатан Левин, драма, мелодрама, комедия, 2008) [H ...
  • Информация
    Посетители, находящиеся в группе Гости, не могут оставлять комментарии к данной публикации.