вход на сайт

Имя пользователя :
Пароль :

Восстановление пароля Регистрация
Боевой конь / War Horse (Стивен Спилберг, драма, военный, 2011) [BDRip-AVC, Профессиональный (полное дублирование) + Оригинал + Sub ]
Рейтинг:
(голосов: 1)



[img]{THEME}/images/logopost.png[/img]



Боевой конь / War Horse

Год выпуска: 2011
Страна: США
Производство: DreamWorks SKG, Reliance Entertainment, Amblin Entertainment
Жанр: драма, военный

Режиссёр: Стивен Спилберг
В ролях:Эмили Уотсон, Дэвид Тьюлис, Питер Муллан, Нильс Ареструп, Джереми Ирвин, Том Хиддлстон, Бенедикт Камбербэтч, Тоби Кеббелл, Патрик Кеннеди

Перевод: Профессиональный (полное дублирование) + Оригинал
Субтитры:softsub (SRT)

Описание: История невероятной дружбы мальчика Альберта и коня Джоуи.
Когда начинается Первая мировая, и Джоуи отправляют вместе с кавалерийским полком на поля сражений Франции, Альберт, несмотря на слишком юный для военной службы возраст, все равно уходит на фронт, чтобы найти и спасти друга.


IMDB: 7.20 (27 183)
КиноПоиск: 7.744 (6 068)

СЭМПЛ

Качество: BDRip-AVC
Продолжительность: 02:26:39 час.

Rip by: Vaippp

Формат: MKV
Видео кодек: x.264
Аудио кодек: AC3
Видео: 1056 x 440 (2.40:1), 23.976 fps, x.264 ~2073 kbps avg, 0.186 bit/pixell
Аудио#1: 48 kHz, AC3 Dolby Digital, 3/2 (L,C,R,l,r) + LFE ch, ~384 kbps
Аудио#2: 48 kHz, AC3 Dolby Digital, 3/2 (L,C,R,l,r) + LFE ch, ~384 kbps
Дата премьеры (мир): 4 декабря 2011
Дата премьеры (РФ): 26 января 2012, «WDSSPR»

MediaInfo: ▼General
Unique ID : 177022303708557082307174037599461634157 (0x852D416BF72859999B61FFC006A4F06D)
Complete name : I:...Boevoi.Kon.2011.DUAL.BDRip-AVC.AC3.-HQ-ViDEO.mkv
Format : Matroska
Format version : Version 2
File size : 2.91 GiB
Duration : 2h 26mn
Overall bit rate : 2 842 Kbps
Movie name : War Horse (2011) - HQ-ViDEO
Encoded date : UTC 2012-04-18 17:13:36
Writing application : mkvmerge v5.5.0 (Healer) built on Apr 6 2012 21:43:24
Writing library : libebml v1.2.3 + libmatroska v1.3.0

Video
ID : 1
Format : AVC
Format/Info : Advanced Video Codec
Format profile : [email protected]
Format settings, CABAC : Yes
Format settings, ReFrames : 16 frames
Codec ID : V_MPEG4/ISO/AVC
Duration : 2h 26mn
Bit rate : 2 073 Kbps
Width : 1 056 pixels
Height : 440 pixels
Display aspect ratio : 2.40:1
Frame rate : 23.976 fps
Color space : YUV
Chroma subsampling : 4:2:0
Bit depth : 8 bits
Scan type : Progressive
Bits/(Pixel*Frame) : 0.186
Stream size : 2.07 GiB (71%)
Title : Vaippp
Writing library : x264 core 122 r2184 5c85e0a
Encoding settings : cabac=1 / ref=16 / deblock=1:-2:-1 / analyse=0x3:0x113 / me=umh / subme=10 / psy=1 / psy_rd=0.95:0.07 / mixed_ref=1 / me_range=48 / chroma_me=1 / trellis=2 / 8x8dct=1 / cqm=0 / deadzone=21,11 / fast_pskip=0 / chroma_qp_offset=-3 / threads=12 / sliced_threads=0 / nr=0 / decimate=0 / interlaced=0 / bluray_compat=0 / constrained_intra=0 / bframes=16 / b_pyramid=2 / b_adapt=2 / b_bias=0 / direct=3 / weightb=1 / open_gop=0 / weightp=2 / keyint=240 / keyint_min=22 / scenecut=40 / intra_refresh=0 / rc_lookahead=40 / rc=2pass / mbtree=0 / bitrate=2073 / ratetol=1.0 / qcomp=0.70 / qpmin=0 / qpmax=69 / qpstep=4 / cplxblur=20.0 / qblur=0.5 / vbv_maxrate=50000 / vbv_bufsize=62500 / nal_hrd=none / ip_ratio=1.40 / pb_ratio=1.30 / aq=1:0.85 / zones=198441,210983,q=35
Language : English
Default : Yes
Forced : No
Matrix coefficients : BT.709-5, BT.1361, IEC 61966-2-4 709, SMPTE RP177

Audio #1
ID : 2
Format : AC-3
Format/Info : Audio Coding 3
Mode extension : CM (complete main)
Format settings, Endianness : Big
Codec ID : A_AC3
Duration : 2h 26mn
Bit rate mode : Constant
Bit rate : 384 Kbps
Channel(s) : 6 channels
Channel positions : Front: L C R, Side: L R, LFE
Sampling rate : 48.0 KHz
Bit depth : 16 bits
Compression mode : Lossy
Stream size : 403 MiB (14%)
Title : DUB @ R5
Language : Russian
Default : Yes
Forced : Yes

Audio #2
ID : 3
Format : AC-3
Format/Info : Audio Coding 3
Mode extension : CM (complete main)
Format settings, Endianness : Big
Codec ID : A_AC3
Duration : 2h 26mn
Bit rate mode : Constant
Bit rate : 384 Kbps
Channel(s) : 6 channel
07505980a20ef071b8abb5d7d553f4b0f942d0e6Боевой конь / War Horse (Стивен Спилберг, драма, военный, 2011) [BDRip-AVC, Профессиональный (полное дублирование) + Оригинал + Sub ] Боевой конь / War Horse (Стивен Спилберг, драма, военный, 2011) [BDRip-AVC, Профессиональный (полное дублирование) + Оригинал + Sub ] " />

Аплоадер: Админ, дата: 19-04-2012, 00:54, торрент скачан: 359 раз

Понравилась раздача? Посмотрите эти:
  • Соучастник / Collateral (Майкл Манн, Триллер, драма, криминал, 2004) [BDRip ...
  • Железная леди / The Iron Lady (Филлида Ллойд, драма, биография, история, 20 ...
  • Боевой конь / War Horse (Стивен Спилберг, Драма, военный, 2011) [HDRip-AVC ...
  • Хорошо быть тихоней / The Perks of Being a Wallflower (Стивен Чбоски, Драма ...
  • Боевой конь / War Horse (Стивен Спилберг, Драма, военный, история, 2011) [B ...
  • Аноним / Anonymous (Роланд Эммерих, триллер, драма, 2011) [BDRip-AVC, Профе ...
  • Голодный кролик атакует / Seeking Justice (Роджер Дональдсон / Roger Donald ...
  • Хранитель времени / Hugo (Мартин Скорсезе, Драма, 2011) [BDRip-AVC, Професс ...
  • Черное золото / Black Gold (Жан-Жак Анно, Драма, 2011) [BDRip-AVC, Професси ...
  • Домашняя работа / The Art of Getting By (Гэвин Вьесен, драма, мелодрама, 20 ...
  • Боевой конь / War Horse (Стивен Спилберг, Драма, 2011) [BDRip 720p, Дубляж ...
  • Боевой конь / War Horse (Стивен Спилберг, Драма, военный, история, 2011) [B ...
  • Mylene Farmer / Du Temps [2011, Pop, HDTVRip]
  • Mylene Farmer / Bleu Noir [2011, Pop, HDTVRip]
  • Боевой конь / War Horse (Стивен Спилберг, драма, военный, 2011) [BDRip, Дуб ...
  • Боевой конь / War Horse (Стивен Спилберг, драма, военный, 2011) [HDRip, Дуб ...
  • Боевой конь / War Horse (Стивен Спилберг, драма, военный, 2011) [DVD9, Проф ...
  • Боевой конь / War Horse (Стивен Спилберг, Драма, 2011) [BDRip, Дубляж + Укр ...
  • Боевой конь / War Horse (Стивен Спилберг, драма, военный, история, 2011г) [ ...
  • Боевой конь / War Horse (Стивен Спилберг, Драма, 2011) [BDRip, Профессионал ...
  • Информация
    Посетители, находящиеся в группе Гости, не могут оставлять комментарии к данной публикации.