вход на сайт

Имя пользователя :
Пароль :

Восстановление пароля Регистрация
Хранитель времени / Hugo (Мартин Скорсезе, Драма, 2011) [BDRip-AVC, Профессиональный (полное дублирование)+ Оригинал + SUB]
Рейтинг:
(голосов: 1)



[img]{THEME}/images/logopost.png[/img]



Хранитель времени / Hugo»

Год выпуска: 2011
Страна: США
Производство: Paramount Pictures
Жанр: Драма, детектив, приключения, семейный

Режиссёр:Мартин Скорсезе
В ролях: Аса Баттерфилд, Бен Кингсли, Саша Барон Коэн, Хлоя Грейс Морец, Рэй Уинстон, Эмили Мортимер, Кристофер Ли, Хелен МакКрори, Майкл Стулбарг, Фрэнсис де ла Тур

Перевод: Профессиональный (полное дублирование)+ Оригинал
Субтитры:Rus, Eng

Описание: Приключения находчивого мальчика, который должен раскрыть секрет, оставленный его отцом, чтобы найти то место, которое сможет назвать своим домом.

Сэмпл

IMDB: 8.20 (26 197)
КиноПоиск: 7.332 (6 475)

Качество: BDRip-AVC
Продолжительность: 02:06:21 час.

Rip by: chopper887

Формат: MKV
Видео кодек: x264
Аудио кодек: AC3
Видео: 1152x648 (16:9), 23.976 fps, x264, ~2 019 kbps, 0.113 bit/pixel
Аудио#1: 48 kHz, AC3 Dolby Digital, 3/2 (L,C,R,l,r) + LFE ch, ~448 kbps
Аудио#2: 48 kHz, AC3 Dolby Digital, 3/2 (L,C,R,l,r) + LFE ch, ~384 kbps Отдельным файлом

Дата премьеры (мир): 10 октября 2011
Дата премьеры (РФ): 5 января 2012, «Централ Партнершип»

MediaInfo ▼
General
Unique ID : 248792801776537890187388173618289544992 (0xBB2BC02D268C9A9BA7CF6874DC9F8F20)
Complete name : E: DownloadsHugo.chopper887Hugo.chopper887.mkv
Format : Matroska
File size : 2.18 GiB
Duration : 2h 6mn
Overall bit rate : 2 470 Kbps
Movie name : Hugo.chopper887
Encoded date : UTC 2012-02-23 06:07:21
Writing application : mkvmerge v4.8.0 (I Got The...) сборка от May 24 2011 03:12:58
Writing library : libebml v1.2.0 + libmatroska v1.1.0

Video
ID : 1
Format : AVC
Format/Info : Advanced Video Codec
Format profile : [email protected]
Format settings, CABAC : Yes
Format settings, ReFrames : 10 frames
Format settings, GOP : M=1, N=24
Codec ID : V_MPEG4/ISO/AVC
Duration : 2h 6mn
Bit rate : 2 019 Kbps
Width : 1 152 pixels
Height : 648 pixels
Display aspect ratio : 16:9
Frame rate : 23.976 fps
Color space : YUV
Chroma subsampling : 4:2:0
Bit depth : 8 bits
Scan type : Progressive
Bits/(Pixel*Frame) : 0.113
Stream size : 1.74 GiB (80%)
Title : Hugo.chopper887
Writing library : x264 core 120 r2146 bcd41db
Encoding settings : cabac=1 / ref=10 / deblock=1:-2:-1 / analyse=0x3:0x133 / me=umh / subme=11 / psy=1 / psy_rd=0.95:0.05 / mixed_ref=1 / me_range=32 / chroma_me=1 / trellis=2 / 8x8dct=1 / cqm=0 / deadzone=21,11 / fast_pskip=0 / chroma_qp_offset=-3 / threads=12 / sliced_threads=0 / nr=0 / decimate=1 / interlaced=0 / bluray_compat=0 / constrained_intra=0 / bframes=10 / b_pyramid=2 / b_adapt=2 / b_bias=0 / direct=3 / weightb=1 / open_gop=0 / weightp=2 / keyint=240 / keyint_min=23 / scenecut=40 / intra_refresh=0 / rc_lookahead=80 / rc=2pass / mbtree=1 / bitrate=2019 / ratetol=1.0 / qcomp=0.60 / qpmin=0 / qpmax=69 / qpstep=4 / cplxblur=20.0 / qblur=0.5 / ip_ratio=1.40 / aq=1:1.00
Language : English

Audio
ID : 2
Format : AC-3
Format/Info : Audio Coding 3
Mode extension : CM (complete main)
Codec ID : A_AC3
Duration : 2h 6mn
Bit rate mode : Constant
Bit rate : 448 Kbps
Channel(s) : 6 channels
Channel positions : Front: L C R, Side: L R, LFE
Sampling rate : 48.0 KHz
Bit depth : 16 bits
Compression mode : Lossy
Stream size : 405 MiB (18%)
Title : Dub

Text #1
ID : 3
Format : UTF-8
Codec ID : S_TEXT/UTF8
Codec ID/Info : UTF-8 Plain Text
Title : Rus

Text #2
ID : 4
Format : UTF-8
Codec ID : S_TEXT/UTF8
Codec ID/Info : UTF-8 Plain Text
Title : Eng



652441827f12604c40262c23834c99f303070ff0Хранитель времени / Hugo (Мартин Скорсезе, Драма, 2011) [BDRip-AVC, Профессиональный (полное дублирование)+ Оригинал + SUB] Хранитель времени / Hugo (Мартин Скорсезе, Драма, 2011) [BDRip-AVC, Профессиональный (полное дублирование)+ Оригинал + SUB] " />

Аплоадер: Админ, дата: 23-02-2012, 16:37, торрент скачан: 359 раз

Понравилась раздача? Посмотрите эти:
  • Семь психопатов / Seven Psychopaths (Мартин МакДона, Триллер, комедия, крим ...
  • Экипаж / Flight (Роберт Земекис, Драма, 2012) [BDRip-AVC, Профессиональный ...
  • Экипаж / Flight (Роберт Земекис, Драма, 2012) [BDRip-AVC, Профессиональный ...
  • Голодный кролик атакует / Seeking Justice (Роджер Дональдсон / Roger Donald ...
  • Хранитель времени / Hugo (Мартин Скорсезе, Драма, 2011) [HDRip-AVC, Професс ...
  • Хранитель времени / Hugo (Мартин Скорсезе, Драма, 2011) [BDRip-AVC, Професс ...
  • Хранитель времени / Hugo (Мартин Скорсезе, драма, детектив, приключения, се ...
  • «Старый» Новый год / New Years Eve (Гэрри Маршалл, Мелодрама, 2011) [BDRip- ...
  • [3D] Хранитель времени / Hugo (Мартин Скорсезе / Martin Scorsese, Драма, Пр ...
  • Хранитель времени / Hugo (Мартин Скорсезе, драма, детектив, приключения, се ...
  • Хранитель времени / Hugo (Мартин Скорсезе, драма, детектив, приключения, се ...
  • Хранитель времени / Hugo (Мартин Скорсезе, драма, детектив, приключения, се ...
  • Домашняя работа / The Art of Getting By (Гэвин Вьесен, драма, мелодрама, 20 ...
  • Хранитель времени / Hugo (Мартин Скорсезе, Драма, 2011) [HDRip, Профессиона ...
  • Хранитель времени / Hugo (Мартин Скорсезе, драма, детектив, приключения, се ...
  • [ENG] Хранитель времени / Hugo (Мартин Скорсезе, Драма, 2011) [DVDRip, ориг ...
  • Хранитель времени / Hugo (Мартин Скорсезе, драма, приключения, 2011) [BDRip ...
  • Хранитель времени / Hugo (Мартин Скорсезе, драма, детектив, приключения, се ...
  • Хранитель времени / Hugo (Мартин Скорсезе, драма, детектив, приключения, се ...
  • Хранитель времени / Hugo (Мартин Скорсезе, драма, детектив, приключения, се ...
  • Информация
    Посетители, находящиеся в группе Гости, не могут оставлять комментарии к данной публикации.