вход на сайт

Имя пользователя :
Пароль :

Восстановление пароля Регистрация
Валентинка / Blue Valentine (Дэрек Сиенфрэнс, драма, мелодрама, 2010) [HDRip-AVC, Профессиональный (многоголосный, закадровый) +Оригинал]
Рейтинг:
(голосов: 1)



[img]{THEME}/images/logopost.png[/img]



Валентинка / Blue Valentine
«Nobody Baby But You And Me.»

Год выпуска: 2010
Страна: США
Производство: Chrysler Corporation, Cottage Industries, Motel Movies
Жанр: драма, мелодрама

Режиссёр: Дэрек Сиенфрэнс
В ролях: Райан Гослинг, Мишель Уильямс, Фэйт Владыка, Джон Доумен, Майк Фогель, Маршалл Джонсон, Джен Джонс, Марианн Планкетт, Джеймс Бенатти, Барбара Трой

Перевод: Профессиональный (многоголосный закадровый) [лицензия] + Оригинал
Субтитры: Русские, Английские

Описание: Любовь сродни лестнице — по ней можно подняться высоко, ощутив неимоверное блаженство и счастье, а можно стремительно упасть вниз от разочарований и обид. Дин и Синди «купались» в своей любви, но спустя время они пресытилась этим чувством. Непонятным образом оно трансформировалось и стало тяготить. Сумеют ли два родных человека удержать и возродить те хрупкие отношения влюбленности и страсти, которые у них остались?



Качество: HDRip-AVC [BDRip 1080p]
Продолжительность: 01:52:04 час.

Формат: MKV
Видео кодек: x264
Аудио кодек: AC3
Видео: 1024х616 (1.66:1), 23.976 fps, ~1875 kbps avg, 0.124 bit/pixel
Аудио 1: 48 kHz, AC3, 3/2 (L,C,R,l,r) + LFE ch, ~448.00 kbps avg - Профессиональный (многоголосный закадровый) [лицензия]
Аудио 2: 48 kHz, AC3, 3/2 (L,C,R,l,r) + LFE ch, ~448.00 kbps avg - Оригинал

Дата премьеры (мир): 24 января 2010

MediaInfo ▼General
Unique ID : 193677470532867958615268607051377503034 (0x91B4EC8B9B8AAF718BF97CACC8816B3A)
Complete name : E:DownloadsBlue Valentine-MVO.chopper887.mkv
Format : Matroska
File size : 2.17 GiB
Duration : 1h 52mn
Overall bit rate : 2 772 Kbps
Movie name : Blue Valentine.chopper887
Encoded date : UTC 2012-01-21 08:38:12
Writing application : mkvmerge v4.8.0 (I Got The...) сборка от May 24 2011 03:12:58
Writing library : libebml v1.2.0 + libmatroska v1.1.0
Video
ID : 1
Format : AVC
Format/Info : Advanced Video Codec
Format profile : [email protected]
Format settings, CABAC : Yes
Format settings, ReFrames : 9 frames
Format settings, GOP : M=1, N=28
Codec ID : V_MPEG4/ISO/AVC
Duration : 1h 52mn
Bit rate : 1 875 Kbps
Width : 1 024 pixels
Height : 616 pixels
Display aspect ratio : 1.662
Frame rate : 23.976 fps
Color space : YUV
Chroma subsampling : 4:2:0
Bit depth : 8 bits
Scan type : Progressive
Bits/(Pixel*Frame) : 0.124
Stream size : 1.43 GiB (66%)
Title : Blue Valentine-MVO.chopper887
Writing library : x264 core 115 r1937 aa21558
Encoding settings : cabac=1 / ref=9 / deblock=1:-2:-1 / analyse=0x3:0x133 / me=umh / subme=9 / psy=1 / psy_rd=1.00:0.10 / mixed_ref=1 / me_range=32 / chroma_me=0 / trellis=2 / 8x8dct=1 / cqm=0 / deadzone=21,11 / fast_pskip=0 / chroma_qp_offset=-3 / threads=12 / sliced_threads=0 / nr=0 / decimate=0 / interlaced=0 / bluray_compat=0 / constrained_intra=0 / bframes=8 / b_pyramid=2 / b_adapt=2 / b_bias=0 / direct=3 / weightb=1 / open_gop=0 / weightp=2 / keyint=250 / keyint_min=23 / scenecut=40 / intra_refresh=0 / rc_lookahead=80 / rc=2pass / mbtree=1 / bitrate=1875 / ratetol=1.0 / qcomp=0.60 / qpmin=0 / qpmax=69 / qpstep=4 / cplxblur=20.0 / qblur=0.5 / ip_ratio=1.40 / aq=1:1.00
Language : English
Audio #1
ID : 2
Format : AC-3
Format/Info : Audio Coding 3
Mode extension : CM (complete main)
Codec ID : A_AC3
Duration : 1h 52mn
Bit rate mode : Constant
Bit rate : 448 Kbps
Channel(s) : 6 channels
Channel positions : Front: L C R, Side: L R, LFE
Sampling rate : 48.0 KHz
Bit depth : 16 bits
Compression mode : Lossy
Stream size : 359 MiB (16%)
Title : MVO
Audio #2
ID : 3
Format : AC-3
Format/Info : Audio Coding 3
Mode extension : CM (complete main)
Codec ID : A_AC3
Duration : 1h 52mn
Bit rate mode : Constant
Bit rate : 448 Kbps
Channel(s) : 6 channels
Channel positions : Front: L C R, Side: L R, LFE
Sampling rate : 48.0 KHz
Bit depth : 16 bits
Compression mode : Lossy
Stream size : 359 MiB (16%)
Title : Eng
Language : English
Text #1
ID : 4
Format : UTF-8
Codec ID
fb028bd2419d64750d147982003708f765a19b00Валентинка / Blue Valentine (Дэрек Сиенфрэнс, драма, мелодрама, 2010) [HDRip-AVC, Профессиональный (многоголосный, закадровый) +Оригинал] Валентинка / Blue Valentine (Дэрек Сиенфрэнс, драма, мелодрама, 2010) [HDRip-AVC, Профессиональный (многоголосный, закадровый) +Оригинал] " />

Аплоадер: Админ, дата: 19-02-2012, 03:53, торрент скачан: 359 раз

Понравилась раздача? Посмотрите эти:
  • Сезон убийц / Killing Season (Марк Стивен Джонсон, триллер, драма, боевик, ...
  • Место под соснами / The Place Beyond the Pines (Дерек Сиенфрэнс, драма, кри ...
  • Смерть на похоронах / Death at a Funeral (Нил ЛаБут, комедия, 2010) [BDRip ...
  • Запретная любовь / The Edge of Love (Джон Мэйбери, Драма, мелодрама, военны ...
  • Убить по расписанию / Ticking Clock (Эрни Барбараш, фантастика, боевик, три ...
  • Шелуха / Husk (Бретт Симмонс, ужасы, триллер, 2011) [BDRip 720p, Профессион ...
  • Цельнометаллическая оболочка / Full Metal Jacket (Стэнли Кубрик, драма, вое ...
  • Властелин измерений / Grande ourse - La cle des possibles (Патрис Сов, фант ...
  • Город воров / The Town [Театральная версия / Theatrical Cut] (Бен Аффлек / ...
  • Голодный кролик атакует / Seeking Justice (Роджер Дональдсон / Roger Donald ...
  • Хранитель времени / Hugo (Мартин Скорсезе, Драма, 2011) [BDRip-AVC, Професс ...
  • Персонаж / Stranger Than Fiction (Марк Форстер, Комедия, драма, фантастика, ...
  • «Старый» Новый год / New Years Eve (Гэрри Маршалл, Мелодрама, 2011) [BDRip- ...
  • Валентинка / Blue Valentine (Дэрек Сиенфрэнс, драма, мелодрама, 2010) [BDRi ...
  • Черное золото / Black Gold (Жан-Жак Анно, Драма, 2011) [BDRip-AVC, Професси ...
  • [3D] Мой кровавый Валентин / My Bloody Valentine (Патрик Люссье, ужасы, три ...
  • Римские каникулы / Roman Holiday (Уильям Уайлер, драма, мелодрама, комедия, ...
  • Далеко-далеко / Far and Away (Рон Ховард, драма, мелодрама, приключения, ве ...
  • Три метра над уровнем неба / Tres metros sobre el cielo (Фернандо Гонзалез ...
  • Mylene Farmer / Du Temps [2011, Pop, HDTVRip]
  • Mylene Farmer / Bleu Noir [2011, Pop, HDTVRip]
  • Нет мужчин - нет проблем / Without Men (Габриела Тальявини / Gabriela Tagli ...
  • Валентинка / Blue Valentine (Дэрек Сиенфрэнс, драма, мелодрама, 2010) [HDRi ...
  • Валентинка / Blue Valentine (Дэрек Сиенфрэнс, драма, мелодрама, 2010) [HDRi ...
  • Футбольные гладиаторы / Ушедшее время / Awaydays (Пэт Холден, драма, кримин ...
  • Информация
    Посетители, находящиеся в группе Гости, не могут оставлять комментарии к данной публикации.