вход на сайт

Имя пользователя :
Пароль :

Восстановление пароля Регистрация
Социальная сеть / The Social Network (Дэвид Финчер / David Fincher, драма, биография, 2010) [BDRip 720p/DVD5, Дубляж + Оригинал + Субтитры]
Рейтинг:
(голосов: 1)



[img]{THEME}/images/logopost.png[/img]




Социальная сеть / The Social Network
«Нельзя завести 500 миллионов друзей, не нажив ни одного врага.»

Год выпуска: 2010
Страна: США
Производство: Columbia Pictures, Michael De Luca Productions, Relativity Media, Scott Rudin Productions, Trigger Street Productions
Жанр: драма, биография

Режиссёр: Дэвид Финчер / David Fincher
В ролях: Джастин Тимберлэйк, Аманда Сайфред, Алекс Петтифер, Киллиан Мёрфи, Оливия Уайлд, Шайло Оствальд, Джонни Галэки, Колин МакГерк, Уилл Харрис, Майкл Уильям Фриман.

Перевод: Дубляж (студия «Пифагор») + Оригинал
Субтитры: русские (форсированные, полные); английские (полные, для слабослышащих), французские, испанские [UTF-8]

Описание: В фильме рассказывается история создания одной из самых популярных в Интернете социальных сетей — Facebook. Оглушительный успех этой сети среди пользователей по всему миру навсегда изменил жизнь студентов-однокурсников гарвардского университета, которые основали ее в 2004 году и за несколько лет стали самыми молодыми мультимиллионерами в США.Дата премьеры (мир): 24 сентября 2010
Дата премьеры (РФ): 28 октября 2010, «WDSSPR»
Качество: BDRip 720p/DVD5
Продолжительность: 02:00:27

Автор рипа: EbP

Формат: MKV
Видео кодек: x264
Аудио кодек: AC3, DTS
Видео: 1 280x532 (2.40:1), 23,976 fps, ~2 921 kbps avg, 0.179 bit/pixel
Аудио1: Russian: 48 kHz, AC3, 3/2 (L,C,R,l,r) + LFE ch, 640 kbps [Дублированный, BD СЕЕ - студия «Пифагор»]
Аудио2: English: 48 kHz, DTS, 3/2 (L,C,R,l,r) + LFE ch, 1536 kbps
MediaInfo ▼TextВидео
Идентификатор : 1
Формат : AVC
Формат/Информация : Advanced Video Codec
Профиль формата : [email protected]
Параметр CABAC формата : Да
Параметр ReFrames формата : 12 кадры
Идентификатор кодека : V_MPEG4/ISO/AVC
Продолжительность : 2 ч. 0 м.
Битрейт : 2921 Кбит/сек
Ширина : 1280 пикс.
Высота : 532 пикс.
Соотношение сторон : 2,40:1
Частота кадров : 23,976 кадр/сек
Цветовое пространство : YUV
Подвыборка цветности : 4:2:0
Битовая глубина : 8 бит
Тип развёртки : Прогрессивная
Бит/(Пиксели*Кадры) : 0.179
Размер потока : 2,46 Гбайт (56%)
Заголовок : The.Social.Network.2010.720p.BluRay.Rus.Eng.h264-EbP
Язык : English
Аудио #1
Идентификатор : 2
Формат : AC-3
Формат/Информация : Audio Coding 3
Расширение режима : CM (complete main)
Идентификатор кодека : A_AC3
Продолжительность : 2 ч. 0 м.
Вид битрейта : Постоянный
Битрейт : 640 Кбит/сек
Канал(ы) : 6 канала(ов)
Расположение каналов : Front: L C R, Side: L R, LFE
Частота : 48,0 КГц
Битовая глубина : 16 бит
Метод сжатия : С потерями
Размер потока : 551 Мбайт (12%)
Заголовок : Dubbed, BD CEE [AC3 5.1 @ 640 kbps]
Язык : Russian
Аудио #2
Идентификатор : 3
Формат : DTS
Формат/Информация : Digital Theater Systems
Идентификатор кодека : A_DTS
Продолжительность : 2 ч. 0 м.
Вид битрейта : Постоянный
Битрейт : 1510 Кбит/сек
Канал(ы) : 6 канала(ов)
Расположение каналов : Front: L C R, Side: L R, LFE
Частота : 48,0 КГц
Битовая глубина : 24 бит
Метод сжатия : С потерями
Размер потока : 1,27 Гбайт (29%)
Заголовок : Original [DTS 5.1 @ 1.5 Mbps]
Язык : English
Текст #1
Идентификатор : 4
Формат : UTF-8
Идентификатор кодека : S_TEXT/UTF8
Идентификатор кодека/Информация : UTF-8 Plain Text
Заголовок : Forced
Язык : Russian
Текст #2
Идентификатор : 5
Формат : UTF-8
Идентификатор кодека : S_TEXT/UTF8
Идентификатор кодека/Информация : UTF-8 Plain Text
Заголовок : Full
Язык : Russian
Текст #3
Идентификатор : 6
Формат : UTF-8
Идентификатор кодека : S_TEXT/UTF8
Идентификатор кодека/Информация : UTF-8 Plain Text
Заголовок : Full
Язык : English
Текст #4
Идентификатор : 7
Формат : UTF-8
Идентификатор кодека : S_TEXT/UTF8
Идентификатор кодека/Информация : UTF-8 Plain Text
Заголовок : Full SDH
Язык : English
Текст #5
Идентификатор : 8
Формат : UTF-8
Идентификатор кодека : S_TEXT/UTF8
Идентификатор кодека/Информация : UTF-8 Plain Text
Язык : French
Текст #6
Идентификатор : 9
Формат : UTF-8
Идентификатор кодека : S_TEXT/UTF8
Идентификатор кодека/Информация : UTF-8 Plain Text
Язык : Spanish
Меню
00:
85ca8b46623313ba41b6da5d639974b3777026f5Социальная сеть / The Social Network (Дэвид Финчер / David Fincher, драма, биография, 2010) [BDRip 720p/DVD5, Дубляж + Оригинал + Субтитры] Социальная сеть / The Social Network (Дэвид Финчер / David Fincher, драма, биография, 2010) [BDRip 720p/DVD5, Дубляж + Оригинал + Субтитры] " />

Аплоадер: Админ, дата: 18-02-2012, 16:25, торрент скачан: 359 раз

Понравилась раздача? Посмотрите эти:
  • Социальная сеть / The Social Network (Дэвид Финчер, Драма, биография, 2010) ...
  • Красотка / Pretty Woman (Гэрри Маршалл, комедия, мелодрама, драма, 1990) [H ...
  • Социальная сеть / The Social Network (Дэвид Финчер,драма, биография, истори ...
  • Начинающие / Beginners (Майк Миллс / Mike Mills, драма, мелодрама, комедия, ...
  • Начинающие / Beginners (Майк Миллс / Mike Mills, драма, мелодрама, комедия, ...
  • Социальная сеть / The Social Network (Дэвид Финчер, драма, биография, 2010) ...
  • Пункт назначения 4 в 3D / The Final Destination in 3D (Дэвид Р. Эллис, ужас ...
  • Социальная сеть / The Social Network (Дэвид Финчер, драма, биография, истор ...
  • Социальная сеть / The Social Network (Дэвид Финчер, драма, биография, истор ...
  • Ренессанс / Renaissance (Кристиан Волькман / мультфильм, фантастика, боевик ...
  • Счастливчик / The Lucky One (Скотт Хикс, Драма, мелодрама, 2012) [BD-Remux ...
  • Красные огни / Red Lights (Родриго Кортес, Ужасы, триллер, драма, 2012) [BD ...
  • Рестлер / The Wrestler (Даррен Аронофски, драма, спорт, 2008) [BDRip-AVC, П ...
  • [EN] Социальная сеть / The Social Network (Дэвид Финчер , драма, биография, ...
  • Социальная сеть / The Social Network (Дэвид Финчер, драма, биография, истор ...
  • Социальная сеть / The Social Network (Дэвид Финчер, драма, биография, истор ...
  • Социальная сеть / The Social Network (Дэвид Финчер, драма, биография, истор ...
  • Социальная сеть / The Social Network (Дэвид Финчер / David Fincher, драма, ...
  • Социальная сеть / The Social Network (Дэвид Финчер, драма, биография, истор ...
  • Социальная сеть / The Social Network (Дэвид Финчер, драма, биография, истор ...
  • [EN] Социальная сеть / The Social Network (Дэвид Финчер, драма, биография, ...
  • Социальная сеть / The Social Network (Дэвид Финчер, драма, биография, истор ...
  • Социальная сеть / The Social Network (Дэвид Финчер, драма,биография,история ...
  • Социальная сеть / The Social Network (Дэвид Финчер, драма, биография, исто ...
  • Социальная сеть / The Social Network (Дэвид Финчер, Драма, Биография, Истор ...
  • Информация
    Посетители, находящиеся в группе Гости, не могут оставлять комментарии к данной публикации.