вход на сайт

Имя пользователя :
Пароль :

Восстановление пароля Регистрация
Похороните меня заживо / Get Low (Аарон Шнайдер / Aaron Schneider,драма, детектив, 2009) [HDRip-AVC, Профессиональный (полное дублированние)]
Рейтинг:
(голосов: 1)



[img]{THEME}/images/logopost.png[/img]



Похороните меня заживо / Get Low
«Every secret dies somewhere.»

Год выпуска: 2009
Страна: США Германия Польша
Производство: K5 International / Zanuck Independent / David Gundlach Productions
Жанр: драма, детектив

Режиссёр: Аарон Шнайдер / Aaron Schneider
В ролях: Роберт Дювалл, Сисси Спейсек, Билл Мюррэй, Лукас Блэк, Джералд МакРэйни, Билл Коббс, Скотт Купер, Лори Бет Едгеман, Линдс Эдвардс, Андреа Пауэлл

Перевод: Профессиональный (полное дублированние) [лицензия]
Субтитры: Английские

Описание: В 1938 году 74-летний Феликс Бризил решил организовать собственные похороны — с намерением, будучи еще живым, принять в них участие и насладиться церемониалом по мере возможности. О том, были ли у экстравагантного старика иные причины опасаться за свое здоровье, кроме возраста, не сообщается. Зато известно, что с момента похорон он прожил еще пять лет и скончался в 1943 году в возрасте 79 лет.

Первые же проводы Бризила стали, вероятно, одним из самых громких событий за всю историю округа Роан, штат Теннесси. О намерениях «покойника» прознала пресса, после чего на сами похороны, состоявшиеся 26 июня, съехалось по разным оценкам от восьми до двенадцати тысяч человек, а журнал Life даже напечатал фоторепортаж о мероприятии.



Качество: HDRip-AVC [Исх. BDRip 1080p]
Продолжительность: 01:43:25

Формат: MKV
Видео кодек: x264
Аудио кодек: AC3 Dolby Digital
Видео: 1152x480 (2.40:1), 23,976 fps, ~1629 kbps avg, 0.123 bit/pixel
Аудио: 48 kHz, AC3 Dolby Digital, 3/2 (L,C,R,l,r) + LFE ch, ~384.00 kbps avg

Дата премьеры (мир): 12 сентября 2009

MediaInfo ▼General
Unique ID : 219604834031779961737228554444587398811 (0xA5365A42A4BDBA19AC8B5DF191FBF69B)
Complete name : I:OtherPohoronite.menja.zazhivo.2009.x264.Dub.HDRip.VaipppPohoronite.menja.zazhivo.2009.x264.Dub.HDRip.mkv
Format : Matroska
File size : 1.45 GiB
Duration : 1h 43mn
Overall bit rate : 2 014 Kbps
Movie name : Get Low (2009) Release by Vaippp
Encoded date : UTC 2011-02-15 21:29:18
Writing application : mkvmerge v4.4.0 (Die Wiederkehr) сборка от Oct 31 2010 21:52:48
Writing library : libebml v1.0.0 + libmatroska v1.0.0
Video
ID : 1
Format : AVC
Format/Info : Advanced Video Codec
Format profile : [email protected]
Format settings, CABAC : Yes
Format settings, ReFrames : 10 frames
Format settings, GOP : M=1, N=32
Codec ID : V_MPEG4/ISO/AVC
Duration : 1h 43mn
Bit rate : 1 629 Kbps
Width : 1 152 pixels
Height : 480 pixels
Display aspect ratio : 2.40:1
Frame rate : 23.976 fps
Color space : YUV
Chroma subsampling : 4:2:0
Bit depth : 8 bits
Scan type : Progressive
Bits/(Pixel*Frame) : 0.123
Stream size : 1.15 GiB (79%)
Title : HDRip by Vaippp
Writing library : x264 core 112 r1867 22bfd31
Encoding settings : cabac=1 / ref=10 / deblock=1:-2:-1 / analyse=0x3:0x113 / me=umh / subme=9 / psy=1 / psy_rd=1.00:0.10 / mixed_ref=1 / me_range=32 / chroma_me=1 / trellis=2 / 8x8dct=1 / cqm=0 / deadzone=21,11 / fast_pskip=0 / chroma_qp_offset=-3 / threads=4 / sliced_threads=0 / nr=0 / decimate=1 / interlaced=0 / constrained_intra=0 / bframes=9 / b_pyramid=2 / b_adapt=2 / b_bias=0 / direct=3 / weightb=1 / open_gop=0 / weightp=2 / keyint=250 / keyint_min=23 / scenecut=40 / intra_refresh=0 / rc_lookahead=60 / rc=2pass / mbtree=1 / bitrate=1629 / ratetol=1.0 / qcomp=0.60 / qpmin=10 / qpmax=51 / qpstep=4 / cplxblur=20.0 / qblur=0.5 / ip_ratio=1.40 / aq=1:1.00 / zones=138343,148774,q=37
Language : English
Audio
ID : 2
Format : AC-3
Format/Info : Audio Coding 3
Mode extension : CM (complete main)
Codec ID : A_AC3
Duration : 1h 43mn
Bit rate mode : Constant
Bit rate : 384 Kbps
Channel(s) : 6 channels
Channel positions : Front: L C R, Side: L R, LFE
Sampling rate : 48.0 KHz
Bit depth : 16 bits
Compression mode : Lossy
Stream size : 284 MiB (19%)
Title : Дубляж R5
Language : Russian
Text
ID : 3
Format : UTF-8
Codec ID : S_TEXT/UTF8
Codec ID/Info : UTF-8 Plain Text
Language : English
&n
b9664fc23b0ca0ece803cc793a2827a9f724da12Похороните меня заживо / Get Low (Аарон Шнайдер / Aaron Schneider,драма, детектив, 2009) [HDRip-AVC, Профессиональный (полное дублированние)] Похороните меня заживо / Get Low (Аарон Шнайдер / Aaron Schneider,драма, детектив, 2009) [HDRip-AVC, Профессиональный (полное дублированние)] " />

Аплоадер: Админ, дата: 24-01-2012, 17:50, торрент скачан: 359 раз

Понравилась раздача? Посмотрите эти:
  • Dev feat. Enrique Iglesias / Naked [2012, Pop, HDRip]
  • Gloria Trevi / No Querias Lastimarme [2013, Latin, Pop, HDRip]
  • Eminem / Rap God [2013, Rap, HDRip]
  • Brit Smith feat. Will.i.am / Provocative (Explicit) [2013, Hip-Hop, HDRip]
  • Havana Brown / Warrior [2013, Dance, HDRip]
  • America Sierra feat. 3BallMTY / Porque El Amor Manda [2013, Dance, Tribal, ...
  • Вероника решает умереть / Veronika Decides to Die (Эмили Янг, Драма 2009) [ ...
  • Убийца внутри меня / The Killer Inside Me (Майкл Уинтерботтом / Michael Win ...
  • Отражение Разбитое зеркало / The Brоken (Шон Эллис , ужасы, фэнтези, трилл ...
  • Дети шпионов 4D / Spy Kids: All the Time in the World in 4D (Роберт Родриге ...
  • Впритык / Due Date (Тодд Филлипс, драма, комедия, 2010) [HDRip-AVC, Професс ...
  • Властелин измерений / Grande ourse - La cle des possibles (Патрис Сов, фант ...
  • Артур и война двух миров / Arthur et la guerre des deux mondes (Люк Бессон ...
  • Путешествия Гулливера / Gullivers Travels (Роб Леттерман / Rob Letterman, ф ...
  • Город воров / The Town [Театральная версия / Theatrical Cut] (Бен Аффлек / ...
  • Паранормальное явление 2 / Paranormal Activity 2 [Theatrical Сut / Театраль ...
  • Хранитель времени / Hugo (Мартин Скорсезе, Драма, 2011) [BDRip-AVC, Професс ...
  • Хранитель времени / Hugo (Мартин Скорсезе, Драма, 2011) [BDRip-AVC, Професс ...
  • Невидимая сторона / The Blind Side (Джон Ли Хэнкок / John Lee Hancock, драм ...
  • Неуловимый Люк / Lucky Luke (Джеймс Хат, Вестерн, 2009) [HDRip-AVC, Професс ...
  • Хороший парень / The Good Guy (Хулио ДеПьетро, мелодрама, комедия, 2009) [H ...
  • Неизвестный / Unknown (Жауме Серра / Jaume Collet-Serra, триллер, драма, де ...
  • Mylene Farmer / Du Temps [2011, Pop, HDTVRip]
  • Mylene Farmer / Bleu Noir [2011, Pop, HDTVRip]
  • Хостел 3 / Hostel: Part III (Скотт Спигел / Scott Spiegel, ужасы, триллер, ...
  • Информация
    Посетители, находящиеся в группе Гости, не могут оставлять комментарии к данной публикации.