вход на сайт

Имя пользователя :
Пароль :

Восстановление пароля Регистрация
Резня /Carnage (Роман Полански, драма, комедия, 2011) [DVDRip-AVC, Дублированный]
Рейтинг:
(голосов: 1)



[img]{THEME}/images/logopost.png[/img]



Резня / Carnage
«A new comedy of no manners.»

Год выпуска: 2011
Страна: Германия Франция Испания Польша
Производство: Constantin Film Produktion GmbH, SBS Productions, SPI Poland
Жанр: драма, комедия

Режиссёр: Роман Полански / Roman Polanski
В ролях: Джоди Фостер, Кейт Уинслет, Кристоф Вальц, Джон Си Райли, Элвис Полански, Элиот Бергер, Натан Риппи, Таня Лопер, Джули Адамс

Перевод: Профессиональный (дублированный)
Субтитры: Отсутствуют

Описание: История двух родительских пар, которые знакомятся после того, как их сыновья сходятся в школьной драке. При этом каждая пара оспаривает родительские навыки другой, вместо того, чтобы разглядеть собственные проблемы.Дата премьеры (мир): 1 сентября 2011
Дата премьеры (РФ): 8 декабря 2011, «Люксор»
Качество: DVDRip-AVC
Продолжительность: 01:16:09

Формат: MKV
Видео кодек: x264
Аудио кодек: AC3 Dolby Digital
Видео: [email protected] (2,35:1), 25 fps, x264 ~2126 kbps avg, 0.277 bit/pixel
Аудио: 48 kHz, AC3 Dolby Digital, 3/2 (L,C,R,l,r) + LFE ch, ~448.00 kbps avg

MediaInfo ▼TextОбщее
Уникальный идентификатор : 195348919776393281421467971085245908846 (0x92F6D55B052141AEAB1C14FBCB50876E)
Полное имя : B:DownloadsФильмыReznja.2011.x264.DVDRip(AVC).mkv
Формат : Matroska
Размер файла : 1,37 Гбайт
Продолжительность : 1 ч. 16 м.
Общий поток : 2575 Кбит/сек
Название фильма : Reznja.2011.x264.DVDRip(AVC)
Дата кодирования : UTC 2011-12-25 17:48:37
Программа кодирования : mkvmerge v5.2.0 (I cant explain) built on Dec 18 2011 18:12:03
Библиотека кодирования : libebml v1.2.3 + libmatroska v1.3.0
Видео
Идентификатор : 1
Формат : AVC
Формат/Информация : Advanced Video Codec
Профиль формата : [email protected]
Параметр CABAC формата : Да
Параметр ReFrames формата : 13 кадры
Режим смешивания : Header stripping
Идентификатор кодека : V_MPEG4/ISO/AVC
Продолжительность : 1 ч. 16 м.
Битрейт : 2126 Кбит/сек
Ширина : 720 пикс.
Высота : 426 пикс.
Соотношение сторон : 2,35:1
Соотношение сторон в оригинале : 2,35:1
Частота кадров : 25,000 кадр/сек
Цветовое пространство : YUV
Подвыборка цветности : 4:2:0
Битовая глубина : 8 бит
Тип развёртки : Прогрессивная
Бит/(Пиксели*Кадры) : 0.277
Размер потока : 1,10 Гбайт (81%)
Заголовок : Reznja.2011.DVDRip.x264.DVDRip(AVC)
Библиотека кодирования : x264 core 115 r1937 aa21558
Настройки программы : cabac=1 / ref=13 / deblock=1:-2:-1 / analyse=0x3:0x133 / me=umh / subme=10 / psy=1 / psy_rd=1.00:0.20 / mixed_ref=1 / me_range=32 / chroma_me=1 / trellis=2 / 8x8dct=1 / cqm=0 / deadzone=21,11 / fast_pskip=0 / chroma_qp_offset=-3 / threads=12 / sliced_threads=0 / nr=0 / decimate=1 / interlaced=0 / bluray_compat=0 / constrained_intra=0 / bframes=10 / b_pyramid=2 / b_adapt=2 / b_bias=0 / direct=3 / weightb=1 / open_gop=1 / weightp=2 / keyint=250 / keyint_min=23 / scenecut=40 / intra_refresh=0 / rc_lookahead=55 / rc=2pass / mbtree=1 / bitrate=2126 / ratetol=1.0 / qcomp=0.60 / qpmin=0 / qpmax=69 / qpstep=4 / cplxblur=20.0 / qblur=0.5 / ip_ratio=1.35 / aq=1:1.70
Язык : English
Аудио
Идентификатор : 2
Формат : AC-3
Формат/Информация : Audio Coding 3
Расширение режима : CM (complete main)
Режим смешивания : Header stripping
Идентификатор кодека : A_AC3
Продолжительность : 1 ч. 16 м.
Вид битрейта : Постоянный
Битрейт : 448 Кбит/сек
Канал(ы) : 6 канала(ов)
Расположение каналов : Front: L C R, Side: L R, LFE
Частота : 48,0 КГц
Битовая глубина : 16 бит
Метод сжатия : С потерями
Размер потока : 244 Мбайт (17%)
Заголовок : DUB
Язык : Russian





aa9f4210469858d75ddbc5cdce047d8dffe94d20Резня /Carnage (Роман Полански, драма, комедия, 2011) [DVDRip-AVC, Дублированный] Резня /Carnage (Роман Полански, драма, комедия, 2011) [DVDRip-AVC, Дублированный] " />

Аплоадер: Админ, дата: 3-01-2012, 10:30, торрент скачан: 359 раз

Понравилась раздача? Посмотрите эти:
  • Виолет и Дейзи / Sightseers (Джеффри Флетчер, боевик, триллер, драма, комед ...
  • Оливер Твист / Oliver Twist (Роман Полански, Драма, 2005) [BDRip 720р, Проф ...
  • Страшно красив / Beastly (Даниел Барнз, фэнтези, драма, мелодрама, 2011) [H ...
  • Вдребезги (Роман Каримов, комедия, 2011) [DVDRip-AVC, Не требуется]
  • 11 11 11 / 11 11 11 (Даррен Линн Боусман , ужасы, триллер, 2011) [DVDRip-AV ...
  • Начинающие / Beginners (Майк Миллс / Mike Mills, драма, мелодрама, комедия, ...
  • Главное - не бояться! / A Little Bit of Heaven (Николь Кэссел / Nicole Kass ...
  • Соломенные псы / Straw Dogs (Род Лури, Триллер, драма, криминал , 2011) [BD ...
  • Последняя любовь на Земле / Perfect Sense (Дэвид МакКензи, драма, мелодрама ...
  • Заражение / Contagion (Стивен Содерберг, триллер, драма, 2011) [BDRip-AVC, ...
  • Погоня / Abduction (Джон Синглтон, боевик, триллер, драма, детектив, 2011) ...
  • Иностранный легион / La cité (Ким Нгуйен / Kim Nguyen, драма, 2010) [DVDRip ...
  • 2016: Конец ночи / Hell (Тим Фельбаум, ужасы, фантастика, триллер, 2011) [D ...
  • Переростки / The Inbetweeners (Бен Палмер, Комедия, 2011) [BDRip-AVC, Профе ...
  • Резня / Carnage (Роман Полански, драма, комедия, 2011) [BDRip-AVC, професси ...
  • Резня / Carnage (Роман Полански, драма, комедия, 2011) [BDRip-AVC, Дубляж]
  • Бедная богатая девочка / Young Adult (Джейсон Райтман, драма, комедия, 2011 ...
  • Проект X: Дорвались / Project X (Нима Нуризаде, комедия, 2012) [BDRip - AVC ...
  • Заражение / Contagion (Стивен Содерберг, Фантастика, 2011) [BDRip 1080p, Пр ...
  • Резня / Carnage (Роман Полански, Драма, 2011) [BDRip 720p, Дубляж + Оригина ...
  • Резня /Carnage (Роман Полански, драма, комедия, 2011) [BDRip 1080p, Дублиро ...
  • Свадебный разгром / A Few Best Men (Стефан Эллиотт, Комедия, 2011) [BDRip 7 ...
  • Павшая империя / Hirokin (Алехо Мо-Сан, фантастика, боевик, драма, приключе ...
  • Резня / Carnage (Роман Полански, драма, комедия, 2011) [BDRip, Профессионал ...
  • Резня /Carnage (Роман Полански, драма, комедия, 2011) [BDRip, Дублированный ...
  • Информация
    Посетители, находящиеся в группе Гости, не могут оставлять комментарии к данной публикации.