вход на сайт

Имя пользователя :
Пароль :

Восстановление пароля Регистрация
Гениальный папа / Father of Invention (Трент Купер, драма, комедия, 2010) [HDRip-AVC, Профессиональный (полное дублирование)]
Рейтинг:
(голосов: 1)



[img]{THEME}/images/logopost.png[/img]



Гениальный папа / Father of Invention
Cлоган: «Inspired by the amazing true story of Winter»

Год выпуска: 2010
Страна: США
Производство: Horizon Entertainment, Pangea Media Group, Foi Productions
Жанр: драма, комедия

Режиссёр: Трент Купер
В ролях: Кевин Спейси, Камилла Белль, Джонни Ноксвил, Хэзер Грэм, Вирджиния Мэдсен, Джон Стамос, Майкл Розенбаум, Крэйг Робинсон, Джек МакГи, Одра Мари

Перевод: Профессиональный (полное дублирование)
Субтитры: Отсутствуют

Описание: Роберт Аксель, эксцентричный изобретатель, считает себя настоящим гуру. Но он теряет все в один миг, когда одно из его изобретений калечит тысячи покупателей. Его ждали тюрьма и 8 лет затворничества, после Аксель готов восстановить свое имя и свою многомиллионную империю. Но пока что ему нужно уговорить свою 22-летнюю дочь пустить его к себе в дом, что бы где-то жить.Качество: HDRip-AVC [Рип с BDRip 1080p]
Продолжительность: 01:33:13

Формат: MKV
Видео кодек: x264
Аудио кодек: АС3
Видео: 1056x440 (2,40:1), 23.976 fps,~2041 kbps avg, 0.183 bit/pixel
Аудио: 48 kHz, AC3, 2/0 (L,R), ~192.00 kbps avg

Media Info ▼Формат : Matroska
Версия формата : Version 2
Размер файла : 1,45 Гбайт
Продолжительность : 1 ч. 33 м.
Общий поток : 2231 Кбит/сек
Дата кодирования : UTC 2011-12-22 16:37:17
Программа кодирования : mkvmerge v4.9.1 (Ich will) сборка от Jul 11 2011 23:53:15
Библиотека кодирования : libebml v1.2.1 + libmatroska v1.1.1

Видео
Идентификатор : 1
Формат : AVC
Формат/Информация : Advanced Video Codec
Профиль формата : [email protected]
Параметр CABAC формата : Да
Параметр ReFrames формата : 11 кадров
Идентификатор кодека : V_MPEG4/ISO/AVC
Продолжительность : 1 ч. 33 м.
Битрейт : 2041 Кбит/сек
Ширина : 1056 пикселей
Высота : 440 пикселей
Соотношение сторон : 2,40:1
Частота кадров : 23,976 кадра/сек
Цветовое пространство : YUV
Субдискретизация насыщенности : 4:2:0
Битовая глубина : 8 бит
Тип развёртки : Прогрессивная
Бит/(Пиксели*Кадры) : 0.183
Размер потока : 1,30 Гбайт (89%)
Библиотека кодирования : x264 core 116 r2074 2641b9e
Настройки программы : cabac=1 / ref=11 / deblock=1:-2:-1 / analyse=0x3:0x113 / me=umh / subme=9 / psy=1 / psy_rd=1.10:0.15 / mixed_ref=1 / me_range=32 / chroma_me=1 / trellis=2 / 8x8dct=1 / cqm=0 / deadzone=21,11 / fast_pskip=0 / chroma_qp_offset=-3 / threads=6 / sliced_threads=0 / nr=0 / decimate=1 / interlaced=0 / bluray_compat=0 / constrained_intra=0 / bframes=10 / b_pyramid=2 / b_adapt=2 / b_bias=0 / direct=1 / weightb=1 / open_gop=0 / weightp=2 / keyint=240 / keyint_min=23 / scenecut=40 / intra_refresh=0 / rc=2pass / mbtree=0 / bitrate=2041 / ratetol=1.0 / qcomp=0.60 / qpmin=0 / qpmax=69 / qpstep=4 / cplxblur=20.0 / qblur=0.5 / ip_ratio=1.40 / pb_ratio=1.30 / aq=1:1.00

Аудио
Идентификатор : 2
Формат : AC-3
Формат/Информация : Audio Coding 3
Расширение режима : CM (complete main)
Идентификатор кодека : A_AC3
Продолжительность : 1 ч. 33 м.
Вид битрейта : Постоянный
Битрейт : 192 Кбит/сек
Каналы : 2 канала
Расположение каналов : Front: L R
Частота : 48,0 КГц
Битовая глубина : 16 бит
Метод сжатия : С потерями
Размер потока : 128 Мбайт (9%)
Заголовок : Dub
Язык : Russian


премьера (мир): 15 февраля 2010
премьера (РФ): 3 ноября 2011, «Art Pictures»

Наши рипы / Набор в РГ/Стол заказов РГ / Стол заказов по РИПам


a620d3f0d33f3b1254614d2e1788033f72366dfbГениальный папа / Father of Invention (Трент Купер, драма, комедия, 2010) [HDRip-AVC, Профессиональный (полное дублирование)] Гениальный папа / Father of Invention (Трент Купер, драма, комедия, 2010) [HDRip-AVC, Профессиональный (полное дублирование)] " />

Аплоадер: Админ, дата: 23-12-2011, 00:15, торрент скачан: 359 раз

Понравилась раздача? Посмотрите эти:
  • Лавлэйс / Lovelace (Роб Эпштейн, Джеффри Фридман, драма, биография, 2013) [ ...
  • Исходный код / Source Code (Дункан Джонс, фантастика, боевик, триллер, драм ...
  • Даю год / I Give It a Year (Дэн Мазер, мелодрама, комедия, 2012) [BDRip-AVC ...
  • Чемпионат Англии 2012-2013 / 25-й тур / Обзор / Суббота / BBC Sport [2013 г ...
  • Страшно красив / Beastly (Даниел Барнз, фэнтези, драма, мелодрама, 2011) [H ...
  • Начинающие / Beginners (Майк Миллс / Mike Mills, драма, мелодрама, комедия, ...
  • Драйв / Drive (Николас Виндинг Рёфн, боевик, триллер, драма, криминал, 2011 ...
  • Драйв / Drive (Николас Виндинг Рёфн, боевик, триллер, драма, криминал, 2011 ...
  • Гениальный папа / Father of Invention (Трент Купер, драма, комедия, 2010) [ ...
  • Драйв / Drive (Николас Виндинг Рёфн, боевик, триллер, драма, криминал, 2011 ...
  • Профессионал / Killer Elite (Гэри МакКендри, боевик, 2011) [BDRip-AVC, Проф ...
  • Переростки / The Inbetweeners (Бен Палмер, Комедия, 2011) [BDRip-AVC, Профе ...
  • Четыре Рождества / Four Christmases (Сет Гордон, Драма, мелодрама, комедия, ...
  • Гениальный папа / Father of Invention (Трент Купер, драма, комедия, 2010) [ ...
  • Заражение / Contagion (Стивен Содерберг, Фантастика, 2011) [BDRip 1080p, Пр ...
  • Сейчас самое время / Now Is Good (Ол Паркер, Мелодрама, 2012) [BDRip-AVC, П ...
  • Гениальный папа / Father of Invention (Трент Купер, драма, комедия, 2010) [ ...
  • Гениальный папа / Father of Invention (Трент Купер, драма, комедия, 2010) [ ...
  • Гениальный папа / Father of Invention (Трент Купер, Драма, комедия, 2010) [ ...
  • Гениальный папа / Father of Invention (Трент Купер, драма, комедия, 2010) ...
  • Информация
    Посетители, находящиеся в группе Гости, не могут оставлять комментарии к данной публикации.