вход на сайт

Имя пользователя :
Пароль :

Восстановление пароля Регистрация
Последняя любовь на Земле / Perfect Sense (Дэвид МакКензи, драма, мелодрама, 2011) [DVDRip-AVC, Профессиональное (многоголосое)]
Рейтинг:
(голосов: 1)



[img]{THEME}/images/logopost.png[/img]



Последняя любовь на Земле | Perfect Sense
«Что останется, когда мир лишится всех чувств?»

Год выпуска: 2011
Страна: Германия Дания Швеция Великобритания
Производство: Film i Vast, Subotica Entertainment Ltd.
Жанр: драма, мелодрама

Режиссёр: Дэвид МакКензи
В ролях: Юэн МакГрегор, Ева Грин, Конни Нильсен, Стивен Диллэйн, Юэн Бремнер, Аластер Маккензи

Перевод: Профессиональный (многоголосый закадровый) [лицензия]
Субтитры: Русские[UTF-8]

Описание: Земля столкнулась с небывалым бедствием. В разных странах, на каждом континенте люди в самом буквальном смысле лишаются чувств — каждого из пяти, одного за другим… Майкл и Сьюзан считают свою связь мимолетной, но когда становится ясно, что мир неумолимо приближается к концу, герои понимают — им уже не прожить друг без друга. Но что останется, когда пропадут последние чувства?Дата премьеры (мир): 24 января 2011
Дата премьеры (РФ): 24 ноября 2011, «Вольга»
Качество: DVDRip-AVC
Продолжительность: 01:51:35

Формат: MKV
Видео кодек: H.264
Аудио кодек: AC3 Dolby Digital
Видео: [email protected] (2,37:1); 25,000 fps; 1904 kbps; 0.245 bit/pixel, H.264
Аудио: 48 kHz, AC3 Dolby Digital, 3/2 (L,C,R,l,r) + LFE ch, ~448.00 kbps avg

MediaInfo ▼TextОбщее
Уникальный идентификатор : 237317553599623000915590216629898743087 (0xB289B2C284DA21B9B684940907108D2F)
Полное имя : S:ФильмыPoslednyaja.Lubov.na.Zemle.2011.P.DVDRip.x264.potroks.mkv
Формат : Matroska
Версия формата : Version 2
Размер файла : 1,45 Гбайт
Продолжительность : 1 ч. 28 м.
Общий поток : 2353 Кбит/сек
Название фильма : -=POTROKS=-
Дата кодирования : UTC 2011-12-17 03:57:04
Программа кодирования : mkvmerge v5.0.1 (Es ist Sommer) built on Oct 9 2011 11:55:43
Библиотека кодирования : libebml v1.2.2 + libmatroska v1.3.0
Видео
Идентификатор : 1
Формат : AVC
Формат/Информация : Advanced Video Codec
Профиль формата : [email protected]
Параметр CABAC формата : Да
Параметр ReFrames формата : 13 кадров
Идентификатор кодека : V_MPEG4/ISO/AVC
Продолжительность : 1 ч. 28 м.
Битрейт : 1904 Кбит/сек
Ширина : 720 пикс.
Высота : 432 пикс.
Соотношение сторон : 2,35:1
Соотношение сторон в оригинале : 2,35:1
Частота кадров : 25,000 кадр/сек
Цветовое пространство : YUV
Подвыборка цветности : 4:2:0
Битовая глубина : 8 бит
Тип развёртки : Прогрессивная
Бит/(Пиксели*Кадры) : 0.245
Размер потока : 1,15 Гбайт (79%)
Заголовок : Poslednyaja.Lubov.na.Zemle.2011.P.DVDRip.x264.potroks
Библиотека кодирования : x264 core 115 r1937 aa21558
Настройки программы : cabac=1 / ref=13 / deblock=1:-3:-3 / analyse=0x3:0x133 / me=umh / subme=10 / psy=1 / psy_rd=1.00:0.10 / mixed_ref=1 / me_range=32 / chroma_me=1 / trellis=2 / 8x8dct=1 / cqm=0 / deadzone=21,11 / fast_pskip=0 / chroma_qp_offset=-3 / threads=12 / sliced_threads=0 / nr=0 / decimate=1 / interlaced=0 / bluray_compat=0 / constrained_intra=0 / bframes=10 / b_pyramid=2 / b_adapt=2 / b_bias=0 / direct=3 / weightb=1 / open_gop=1 / weightp=2 / keyint=250 / keyint_min=23 / scenecut=40 / intra_refresh=0 / rc_lookahead=55 / rc=2pass / mbtree=1 / bitrate=1904 / ratetol=1.0 / qcomp=0.60 / qpmin=0 / qpmax=69 / qpstep=4 / cplxblur=20.0 / qblur=0.5 / ip_ratio=1.35 / aq=1:1.50
Аудио
Идентификатор : 2
Формат : AC-3
Формат/Информация : Audio Coding 3
Расширение режима : CM (complete main)
Идентификатор кодека : A_AC3
Продолжительность : 1 ч. 28 м.
Вид битрейта : Постоянный
Битрейт : 448 Кбит/сек
Каналы : 6 каналов
Расположение каналов : Front: L C R, Side: L R, LFE
Частота : 48,0 КГц
Битовая глубина : 16 бит
Метод сжатия : С потерями
Размер потока : 283 Мбайт (19%)
Заголовок : MVO [R5]
Язык : Russian
Текст
Идентификатор : 3
Формат : UTF-8
Идентификатор кодека : S_TEXT/UTF8
Идентификатор кодека/Информация : UTF-8 Plain Text
Заголовок : R5
Язык : Russian


95f67de64b5aa2d06293e0b385628f43fdea594dПоследняя любовь на Земле / Perfect Sense (Дэвид МакКензи, драма, мелодрама, 2011) [DVDRip-AVC, Профессиональное (многоголосое)] Последняя любовь на Земле / Perfect Sense (Дэвид МакКензи, драма, мелодрама, 2011) [DVDRip-AVC, Профессиональное (многоголосое)] " />

Аплоадер: Админ, дата: 17-12-2011, 16:46, торрент скачан: 359 раз

Понравилась раздача? Посмотрите эти:
  • Интимные места (Наталья Меркулова, Алексей Чупов, драма, мелодрама, 2013) [ ...
  • Больше, чем любовь / A Lot Like Love (Найджел Коул, Драма, мелодрама, комед ...
  • Идеальный голос / Pitch Perfect (Джейсон Мур, Мелодрама, комедия, музыка, 2 ...
  • Бульвар спасения / Salvation Boulevard (Джордж Рэтлифф, боевик, триллер, др ...
  • Ну ты и придурок! / You Stupid Man (Брайан Барнс, мелодрама, комедия, 2002) ...
  • Последняя любовь на Земле / Perfect Sense (Дэвид МакКензи, фантастика, драм ...
  • Страшно красив / Beastly (Даниел Барнз, фэнтези, драма, мелодрама, 2011) [H ...
  • Эта - дурацкая - любовь / Crazy, Stupid, Love. (Гленн Фикарра,Джон Рекуа,др ...
  • Начинающие / Beginners (Майк Миллс / Mike Mills, драма, мелодрама, комедия, ...
  • Главное - не бояться! / A Little Bit of Heaven (Николь Кэссел / Nicole Kass ...
  • Соломенные псы / Straw Dogs (Род Лури, Триллер, драма, криминал , 2011) [BD ...
  • Погоня / Abduction (Джон Синглтон, боевик, триллер, драма, детектив, 2011) ...
  • Челюсти 3D / Shark Night 3D ( Дэвид Р. Эллис, ужасы, 2011) [BDRip-AVC, Проф ...
  • Иностранный легион / La cité (Ким Нгуйен / Kim Nguyen, драма, 2010) [DVDRip ...
  • Резня /Carnage (Роман Полански, драма, комедия, 2011) [DVDRip-AVC, Дублиров ...
  • Последняя любовь на Земле / Perfect Sense (Дэвид МакКензи, драма, мелодрама ...
  • Последняя любовь на Земле / Perfect Sense (фантастика, драма, мелодрама, фа ...
  • Любовь / Love (Уильям Юбэнк, Фантастика, драма, 2011) [BDRip-AVC, Профессио ...
  • Тонкий Лед / The Convincer (Джилл Шпрехер, Драма, комедия, криминал, 2011) ...
  • Ищу друга на конец света / Seeking a Friend for the End of the World (Лорен ...
  • Патруль / End of Watch (Дэвид Эйр, Триллер, драма, криминал, 2012) [HDRip-A ...
  • Последняя любовь на Земле / Perfect Sense (Дэвид МакКензи, фантастика, драм ...
  • Павшая империя / Hirokin (Алехо Мо-Сан, фантастика, боевик, драма, приключе ...
  • Последняя любовь на Земле / Perfect Sense (Дэвид МакКензи, драма, мелодрама ...
  • Последняя любовь на Земле / Perfect Sense (Дэвид МакКензи, драма, мелодрама ...
  • Информация
    Посетители, находящиеся в группе Гости, не могут оставлять комментарии к данной публикации.